Годзилла и Конг: Новая империя / Godzilla x Kong: The New Empire (2024) BDRip 1080p | Bravo Records Georgia / Movie Dubbing

Reply to topic
 
Author Message

HardwareMining ®

Gender: Male

Longevity: 4 years 9 months

Posts: 657

Post 16-Jun-2024 16:51

[Quote]

Годзилла и Конг: Новая империя / Godzilla x Kong: The New Empire
«Воспряньте вместе или падёте порознь» Год выпуска: 2024
Жанр: фантастика, боевик
Выпущено: США, Австралия | Legendary Pictures, Screen Queensland, Warner Bros.
Режиссер: Адам Вингард
В ролях: Ребекка Холл, Брайан Тайри Генри, Дэн Стивенс, Кэйли Хоттл, Алекс Фернс, Чэнь Фала, Рэйчел Хаус, Рональд Смик, Чантелл Джемисон, Грег Хаттон
О фильме:
Два древних титана, Годзилла и Конг, сражаются в эпической битве, пока люди разгадывают их происхождение и связь с тайнами Острова черепа.

Качество: BDRip 1080p
Видео: AVC, 1920x800 (2.40:1), 23,976 fps, 13.9 Mb/s (0.378 bit/pixel)
Аудио: русский, AC3, 5.1, 48 kHz, 384 kbps CBR
Продолжительность: 01:54:41
Перевод: Дублированный | Bravo Records Georgia / Movie Dubbing
Субтитры: Русские | Forced

Скриншоты

MediaInfo

General
Unique ID : 196106851101760297010270630751836128585 (0x9388CE41486778FF8D5E8C6436054549)
Complete name : E:\GF\Godzilla.x.Kong.The.New.Empire.2024.BDRip.1080p.Rip.by.HardwareMining.R.G.Generalfilm.mkv
Format : Matroska
Format version : Version 4
File size : 11.4 GiB
Duration : 1 h 54 min
Overall bit rate : 14.3 Mb/s
Frame rate : 23.976 FPS
Movie name : Godzilla.x.Kong.The.New.Empire.2024.BDRip.1080p.Rip.by.HardwareMining.R.G.Generalfilm
Encoded date : 2024-06-16 13:23:15 UTC
Writing application : mkvmerge v6.8.0 ('Theme for Great Cities') 32bit built on Mar 2 2014 21:27:07
Writing library : libebml v1.3.0 + libmatroska v1.4.1
Cover : Yes
Attachments : cover.png
Video
ID : 1
Format : AVC
Format/Info : Advanced Video Codec
Format profile : High@L4.1
Format settings : CABAC / 4 Ref Frames
Format settings, CABAC : Yes
Format settings, Reference frames : 4 frames
Codec ID : V_MPEG4/ISO/AVC
Duration : 1 h 54 min
Bit rate : 13.9 Mb/s
Width : 1 920 pixels
Height : 800 pixels
Display aspect ratio : 2.40:1
Frame rate mode : Constant
Frame rate : 23.976 FPS
Color space : YUV
Chroma subsampling : 4:2:0
Bit depth : 8 bits
Scan type : Progressive
Bits/(Pixel*Frame) : 0.378
Stream size : 10.9 GiB (95%)
Writing library : x264 core 130 r2273 b3065e6
Encoding settings : cabac=1 / ref=4 / deblock=1:-2:-1 / analyse=0x3:0x133 / me=umh / subme=10 / psy=1 / psy_rd=1.00:0.08 / mixed_ref=1 / me_range=32 / chroma_me=1 / trellis=2 / 8x8dct=1 / cqm=0 / deadzone=21,11 / fast_pskip=0 / chroma_qp_offset=-3 / threads=48 / lookahead_threads=6 / sliced_threads=0 / nr=0 / decimate=1 / interlaced=0 / bluray_compat=0 / constrained_intra=0 / bframes=11 / b_pyramid=2 / b_adapt=2 / b_bias=0 / direct=3 / weightb=1 / open_gop=0 / weightp=2 / keyint=250 / keyint_min=25 / scenecut=40 / intra_refresh=0 / rc=2pass / mbtree=0 / bitrate=13910 / ratetol=1.0 / qcomp=0.60 / qpmin=0 / qpmax=69 / qpstep=4 / cplxblur=20.0 / qblur=0.5 / ip_ratio=1.40 / pb_ratio=1.30 / aq=2:1.00
Language : English
Default : Yes
Forced : No
Color range : Limited
Color primaries : BT.709
Transfer characteristics : BT.709
Matrix coefficients : BT.709
Audio
ID : 2
Format : AC-3
Format/Info : Audio Coding 3
Commercial name : Dolby Digital
Codec ID : A_AC3
Duration : 1 h 54 min
Bit rate mode : Constant
Bit rate : 384 kb/s
Channel(s) : 6 channels
Channel layout : L R C LFE Ls Rs
Sampling rate : 48.0 kHz
Frame rate : 31.250 FPS (1536 SPF)
Compression mode : Lossy
Stream size : 315 MiB (3%)
Title : Dub | Bravo Records Georgia
Language : Russian
Service kind : Complete Main
Default : Yes
Forced : No
Dialog Normalization : -26 dB
compr : -0.28 dB
cmixlev : -3.0 dB
surmixlev : -3 dB
dmixmod : Lo/Ro
ltrtcmixlev : -3.0 dB
ltrtsurmixlev : -3.0 dB
lorocmixlev : -3.0 dB
lorosurmixlev : -3.0 dB
dialnorm_Average : -26 dB
dialnorm_Minimum : -26 dB
dialnorm_Maximum : -26 dB
Text
ID : 3
Format : UTF-8
Codec ID : S_TEXT/UTF8
Codec ID/Info : UTF-8 Plain Text
Title : Forced
Language : Russian
Default : Yes
Forced : No
Menu
00:00:00.000 : en:Chapter 01
00:09:36.367 : en:Chapter 02
00:18:34.863 : en:Chapter 03
00:30:42.966 : en:Chapter 04
00:38:47.491 : en:Chapter 05
00:49:01.939 : en:Chapter 06
01:00:24.037 : en:Chapter 07
01:10:13.834 : en:Chapter 08
01:19:26.887 : en:Chapter 09
01:28:07.699 : en:Chapter 10
01:38:40.539 : en:Chapter 11
01:46:38.725 : en:Chapter 1
Релиз от:
[Profile] [PM]
Display posts:    
Reply to topic

Current time is: 23-Jul 18:43

All times are UTC + 3



You cannot post new topics in this forum
You cannot reply to topics in this forum
You cannot edit your posts in this forum
You cannot delete your posts in this forum
You cannot vote in polls in this forum
You cannot attach files in this forum
You cannot download files in this forum