Выжить в Дубае. Возвращение [2 сезон: 1-6 выпуск из 12] (2024) WEBRip 720p от Files-x

Reply to topic
 
Author Message

bond74 ®

Gender: Male

Longevity: 5 years 8 months

Posts: 2440

Post 16-Jun-2024 22:58

[Quote]

Выжить в Дубае. Возвращение Год выхода: 2024
Жанр: ТВ-шоу, развлекательный
Выпущено: Россия
Ведущий: Павел Воля, Ляйсан Утяшева
О сериале: Новый сезон культового реалити-шоу с Павлом Волей и Ляйсан Утяшевой. Участники звездной и народной команд вновь будут проходить сложнейшие испытания, чтобы выиграть главный приз – 10 миллионов рублей, а также вкусить все прелести роскошной дубайской жизни, если очень повезет. По правилам реалити, звездная и народная команда проходят испытания, которые решают, кто отправляется жить в жаркую и беспощадную пустыню, а кто – в роскошный отель со всеми благами, которые только можно себе представить. Каждую неделю на голосовании проект покидает один участник. До финала доходят лишь двое, именно они и сражаются за звание победителя. Среди испытаний шоу не только задания на физическую силу и выносливость, но и на смекалку, логику и даже удачу.
Качество: WEBRip 1080p
Видео: MPEG-4 AVC, ~ 1535 Кбит/с, 1280x720, 25 кадр/с
Аудио: AC3, 2 ch, 192 Кбит/с
Продолжительность: 1 х ~ 01:35:00
Перевод: Не требуется
Субтитры: Нет

Скриншоты


MediaInfo

Общее
Уникальный идентификатор : 216416667598200615301806341824247444148 (0xA2D05584E7248FC1B32DAA340CC332B4)
Полное имя : D:\films\Выжить в Дубае. Возвращение.2024.WEB-DL 720p.Files-x\01. Выжить в Дубае. Возвращение.2024.WEB-DL 720p.Files-x.mkv
Формат : Matroska
Версия формата : Version 4
Размер файла : 1,35 Гбайт
Продолжительность : 1 ч. 52 м.
Режим общего битрейта : Переменный
Общий поток : 1 729 Кбит/сек
Частота кадров : 25,000 кадров/сек
Дата кодирования : 2024-06-16 16:52:29 UTC
Программа кодирования : mkvmerge v7.8.0 ('River Man') 32bit built on Apr 3 2015 12:11:22
Библиотека кодирования : libebml v1.3.1 + libmatroska v1.4.2
Видео
Идентификатор : 1
Формат : AVC
Формат/Информация : Advanced Video Codec
Профиль формата : High@L4.1
Настройки формата : CABAC / 4 Ref Frames
Параметр CABAC формата : Да
Параметр RefFrames формата : 4 кадра
Параметр GOP формата : M=4, N=50
Идентификатор кодека : V_MPEG4/ISO/AVC
Продолжительность : 1 ч. 52 м.
Вид битрейта : Переменный
Битрейт : 1 535 Кбит/сек
Максимальный битрейт : 5 000 Кбит/сек
Ширина : 1 280 пикселей
Высота : 720 пикселей
Соотношение сторон : 16:9
Режим частоты кадров : Постоянный
Частота кадров : 25,000 кадров/сек
Цветовое пространство : YUV
Субдискретизация насыщенности : 4:2:0
Битовая глубина : 8 бит
Тип развёртки : Прогрессивная
Бит/(Пиксели*Кадры) : 0.067
Размер потока : 1,20 Гбайт (89%)
Default : Да
Forced : Нет
Цветовой диапазон : Limited
Основные цвета : BT.709
Характеристики трансфера : BT.709
Аудио
Идентификатор : 2
Формат : AC-3
Формат/Информация : Audio Coding 3
Коммерческое название : Dolby Digital
Идентификатор кодека : A_AC3
Продолжительность : 1 ч. 52 м.
Вид битрейта : Постоянный
Битрейт : 192 Кбит/сек
Каналы : 2 канала
Channel layout : L R
Частота : 44,1 КГц
Частота кадров : 28,711 кадров/сек (1536 SPF)
Метод сжатия : С потерями
Задержка видео : -120 мс.
Размер потока : 154 Мбайт (11%)
Service kind : Complete Main
Default : Да
Forced : Нет

Внимание! Раздача ведётся путём добавления новых серий

Раздача ведётся путём добавления новых серий, при каждом добавлении создаётся новый торрент. Чтобы начать докачку новой серии, пользователям необходимо сделать следующее:
- Остановить скачивание.
- Удалить старый торрент у себя из клиента (старые серии удалять не надо).
- Скачать новый торрент и запустить его у себя в клиенте вместо старого, при этом указать клиенту путь в старую папку куда и должно происходить скачивание новых серий.
Ваш клиент при этом должен произвести хеширование (проверку) старой папки (если не производит сам - помогите ему сделать это), и будет докачивать только те серии которых у вас ещё нет. Старые серии при этом не удаляются, а продолжают раздаваться!
Релиз от:

Release was prepared by RG Files-x

[Profile] [PM]
Display posts:    
Reply to topic

Current time is: 23-Jul 18:40

All times are UTC + 3



You cannot post new topics in this forum
You cannot reply to topics in this forum
You cannot edit your posts in this forum
You cannot delete your posts in this forum
You cannot vote in polls in this forum
You cannot attach files in this forum
You cannot download files in this forum