Платье цвета моря [1-4 серии из 4] (2023) WEBRip от Files-x

Reply to topic
 
Author Message

patriot67 ®

Gender: Male

Longevity: 4 years 8 months

Posts: 325

Post 22-Jun-2024 16:02

[Quote]

Платье цвета моря Год выпуска: 2023
Жанр: Мелодрама
Выпущено: Россия, Кинокомпания «Стелла»
Режиссер: Юрий Лейзеров
В ролях: Наталия Селивёрстова, Евгений Воловенко, Евгения Ахременко, Константин Соловьёв, Ольга Чудакова, Михаил Хмуров, Сергей Комаров (II), Юрий Пимкин, Анастасия Морозюк, Пётр Котров, Юлия Апалат
О фильме: Александра после развода все свое внимание сосредоточила на воспитании ребенка и работе. О новых знакомствах она даже не помышляла, а после замужества дочери и вовсе переехала к ней, чтобы помогать по хозяйству и присматривать за внуками. Во время совместного семейного отпуска внимание женщины привлек наряд необычного цвета. Приобретя его, она ощутила, что наконец в ее жизнь начали возвращаться радость и счастье. В те минуты Александра Николаевна даже не подозревала, что очень скоро встретит на курорте свою любовь, и ее мир перевернется на 180 градусов…
Качество: WEBRip
Видео: XviD, ~ 1400 Кбит/с, 720x400, 25 кадр/с
Аудио: AC3, 2 ch, 192 Кбит/с
Продолжительность: 1 x ~ 02:55:00
Перевод: Не требуется
Cубтитры: Русские

Скриншоты


MediaInfo

Общее
Полное имя : C:\films\Платье цвета моря.2023.WEBRip.Files-x\Платье цвета моря. 2024. WEBRip .Files-x.avi
Формат : AVI
Формат/Информация : Audio Video Interleave
Настройки формата : BitmapInfoHeader / WaveFormatEx
Размер файла : 1,90 Гбайт
Продолжительность : 2 ч. 55 м.
Общий поток : 1 550 Кбит/сек
Частота кадров : 25,000 кадров/сек
Программа кодирования : VirtualDubMod 1.5.10.3 | www.virtualdub-fr.org || (build 2550/release)
Библиотека кодирования : VirtualDubMod build 2550/release
Видео
Идентификатор : 0
Формат : MPEG-4 Visual
Профиль формата : Advanced Simple@L5
Настройки формата : BVOP1 / Custom Matrix
Параметр BVOP формата : 1
Параметр QPel формата : Нет
Параметр GMC формата : Без точки перехода
Параметр матрицы формата : Выборочная
Идентификатор кодека : XVID
Идентификатор кодека/Подсказка : XviD
Продолжительность : 2 ч. 55 м.
Битрейт : 1 348 Кбит/сек
Ширина : 720 пикселей
Высота : 400 пикселей
Соотношение сторон : 16:9
Частота кадров : 25,000 кадров/сек
Цветовое пространство : YUV
Субдискретизация насыщенности : 4:2:0
Битовая глубина : 8 бит
Тип развёртки : Прогрессивная
Метод сжатия : С потерями
Бит/(Пиксели*Кадры) : 0.187
Размер потока : 1,65 Гбайт (87%)
Библиотека кодирования : XviD 73
Аудио
Идентификатор : 1
Формат : AC-3
Формат/Информация : Audio Coding 3
Коммерческое название : Dolby Digital
Идентификатор кодека : 2000
Продолжительность : 2 ч. 55 м.
Вид битрейта : Постоянный
Битрейт : 192 Кбит/сек
Каналы : 2 канала
Channel layout : L R
Частота : 48,0 КГц
Частота кадров : 31,250 кадров/сек (1536 SPF)
Метод сжатия : С потерями
Размер потока : 240 Мбайт (12%)
Выравнивание : Разделение по промежуткам
Продолжительность промежутка : 40 мс. (1,00 видеокадр)
Время предзагрузки промежутка : 500 мс.
Service kind : Complete Main
Релиз от:

Release was prepared by RG Files-x

[Profile] [PM]
Display posts:    
Reply to topic

Current time is: 23-Jul 17:30

All times are UTC + 3



You cannot post new topics in this forum
You cannot reply to topics in this forum
You cannot edit your posts in this forum
You cannot delete your posts in this forum
You cannot vote in polls in this forum
You cannot attach files in this forum
You cannot download files in this forum