Полупановы [1 сезон: 1-13 серии из 13] (2024) HDTVRip от Files-x

Reply to topic
 
Author Message

Nicodem ®

Gender: Male

Longevity: 5 years 8 months

Posts: 1444

Post 24-Jun-2024 20:42

[Quote]

Полупановы
Год выпуска: 2024
Жанр: Комедия
Выпущено: Россия, ТНТ, PREMIER, ПЕНЗФИЛЬММАШ
Режиссер: Алексей Смирнов (VI)
В ролях: Дмитрий Степашин, Елена Федотова (II), Артём Молоканов, Надежда Просвирнина, Антон Просвирнин, Тимофей Зайцев, Михаил Горевой, Александр Половцев, Максим Коновалов, Софья Зайка, Степан Девонин, Даня Киселёв, Степан Абрамов, Анна Хилькевич, Эльдар Джарахов, Доминик Джокер, Амирчик
О фильме: Социальный работник Наталья приезжает в частный старый дом к семье Полупановых, чтобы переселить их в более комфортные условия по государственной программе реновации. Но этот процесс затягивается, так как Полупановы – не совсем обычная семья. Так как Полупановых абсолютно не интересуют деньги, Наталья на протяжении всего сезона использует любые методы, которые помогут переселить семью: от выдуманных приведений в доме и приглашения органов опеки до организации бунта посёлка против Полупановых. Но каждый раз, сталкиваясь со странностью Полупановых, её попытки завершаются неудачей.

Качество: HDTVRip
Видео: XviD, ~ 1633 Кбит/с, 720x400, 25 кадр/с
Аудио: AC3, 2 ch, 192 Кбит/с
Продолжительность: 13 х 00:23:30
Перевод: Не требуется
Субтитры: Нет

Скриншоты



MediaInfo

General
Complete name : C:01.Полупановы.s01.E01.(2024).HDTVRip.by.Nicodem.Files-x.avi
Format : AVI
Format/Info : Audio Video Interleave
File size : 316 MiB
Duration : 24mn 4s
Overall bit rate : 1 834 Kbps
Writing application : VirtualDubMod 1.5.10.3 | www.virtualdub-fr.org || (build 2550/release)
Writing library : VirtualDubMod build 2550/release
Video
ID : 0
Format : MPEG-4 Visual
Format profile : Advanced Simple@L5
Format settings, BVOP : 1
Format settings, QPel : No
Format settings, GMC : No warppoints
Format settings, Matrix : Custom
Codec ID : XVID
Codec ID/Hint : XviD
Duration : 24mn 4s
Bit rate : 1 633 Kbps
Width : 720 pixels
Height : 400 pixels
Display aspect ratio : 16:9
Frame rate : 25.000 fps
Color space : YUV
Chroma subsampling : 4:2:0
Bit depth : 8 bits
Scan type : Progressive
Compression mode : Lossy
Bits/(Pixel*Frame) : 0.227
Stream size : 281 MiB (89%)
Writing library : XviD 73
Audio
ID : 1
Format : AC-3
Format/Info : Audio Coding 3
Mode extension : CM (complete main)
Codec ID : 2000
Duration : 24mn 4s
Bit rate mode : Constant
Bit rate : 192 Kbps
Channel(s) : 2 channels
Channel positions : Front: L R
Sampling rate : 48.0 KHz
Bit depth : 16 bits
Compression mode : Lossy
Stream size : 33.1 MiB (10%)
Alignment : Split accross interleaves
Interleave, duration : 40 ms (1.00 video frame)
Interleave, preload duration : 500 ms

Раздача ведётся путём добавления новых серий

Внимание! Раздача ведётся путём добавления новых серий; при каждом добавлении создаётся новый торрент.
Чтобы начать докачку новой серии, пользователям необходимо сделать следующее:
1. Остановить скачивание;
2. Удалить старый торрент у себя из клиента (старые серии удалять не надо);
3. Скачать новый торрент и запустить его у себя в клиенте вместо старого, при этом указать клиенту путь в старую папку куда и должно происходить скачивание новых серий. Ваш клиент при этом должен произвести хеширование (проверку) старой папки и будет докачивать только те серии, которых у вас ещё нет. Старые серии при этом не удаляются, а продолжают раздаваться! Eсли вы уже удалили старые серии, то предотвратить повторную закачку старых серий можно, отжав галочку в соответствующих местах при запуске нового торрента.
Релиз от:

Release was prepared by RG Files-x

[Profile] [PM]
Display posts:    
Reply to topic

Current time is: 23-Jul 17:53

All times are UTC + 3



You cannot post new topics in this forum
You cannot reply to topics in this forum
You cannot edit your posts in this forum
You cannot delete your posts in this forum
You cannot vote in polls in this forum
You cannot attach files in this forum
You cannot download files in this forum