Мокрые майки [1-7 серии из 10] (2024) WEBRip 1080p от Files-x

Reply to topic
 
Author Message

bond74 ®

Gender: Male

Longevity: 5 years 8 months

Posts: 2440

Post 04-Jul-2024 14:46

[Quote]

Мокрые майки
Год выпуска: 2024
Жанр: Комедия
Выпущено: Россия, Кинокомпания "ФилоСофияКино"
Режиссер: Денис Гуляр
В ролях: Мария Горбань, Ирина Темичева, Давид Манукян, Маруся Климова, Маргарита Шабардыгина, Денис Сладков, Диана Кафф, Вячеслав Разбегаев, Мария Чувилина, Анна Киселёва, Роман Шпагин, Олег Евтеев, Иван Латушко, Кристина Айвазовская, Алёна Хмельницкая
О фильме: Мара — бывшая стриптизерша, эффектная и далеко не самая глупая. Ей скоро исполнится 30, и от этого она испытывает острый кризис самореализации. Чтобы доказать окружающим и в первую очередь себе, что она способна на нечто большее, чем за деньги обнажаться на публику — Мара решает стать бизнес-леди. Она упрашивает своего давнишнего спонсора Юрьича, дать ей управление салоном красоты, но у того на её счет другие планы. В конце концов, Мара становится управляющей в небольшой и захудалой автомойке на окраине города. Сможет ли она освоиться в новой для себя роли и поднять загнивающий бизнес со дна?
Качество: WEBRip 1080p
Видео: MPEG-4 AVC, ~ 4500 Кбит/с, 1920x1072, 25 кадр/с
Аудио: AC3, 2 ch, 192 Кбит/с
Продолжительность: 6 x ~ 00:22:51
Перевод: Не требуется
Субтитры: Нет

Скриншоты



MediaInfo

Общее
Уникальный идентификатор : 192582065766718154233145832688838934909 (0x90E1F4EBAE59625492BE12881326817D)
Полное имя : D:\films\Мокрые майки.2024.WEB-DL 1080p.Files-x\02. Мокрые майки.2024.WEB-DL 1080p.Files-x.mkv
Формат : Matroska
Версия формата : Version 4
Размер файла : 690 Мбайт
Продолжительность : 21 м. 30 с.
Режим общего битрейта : Переменный
Общий поток : 4 485 Кбит/сек
Частота кадров : 25,000 кадров/сек
Дата кодирования : 2024-07-03 20:52:13 UTC
Программа кодирования : mkvmerge v7.8.0 ('River Man') 32bit built on Apr 3 2015 12:11:22
Библиотека кодирования : libebml v1.3.1 + libmatroska v1.4.2 / Lavf58.32.104
DATE : 2024-07-03T23:50:13.3674910+03:00
Видео
Идентификатор : 1
Формат : AVC
Формат/Информация : Advanced Video Codec
Профиль формата : High@L4.1
Настройки формата : CABAC / 4 Ref Frames
Параметр CABAC формата : Да
Параметр RefFrames формата : 4 кадра
Идентификатор кодека : V_MPEG4/ISO/AVC
Продолжительность : 21 м. 30 с.
Вид битрейта : Переменный
Битрейт : 4 291 Кбит/сек
Максимальный битрейт : 4 500 Кбит/сек
Ширина : 1 920 пикселей
Высота : 1 072 пикселя
Соотношение сторон : 16:9
Режим частоты кадров : Постоянный
Частота кадров : 25,000 кадров/сек
Цветовое пространство : YUV
Субдискретизация насыщенности : 4:2:0
Битовая глубина : 8 бит
Тип развёртки : Прогрессивная
Бит/(Пиксели*Кадры) : 0.083
Размер потока : 660 Мбайт (96%)
Default : Да
Forced : Нет
Цветовой диапазон : Limited
Основные цвета : BT.709
Характеристики трансфера : BT.709
Коэффициенты матрицы : BT.709
Аудио
Идентификатор : 2
Формат : AC-3
Формат/Информация : Audio Coding 3
Коммерческое название : Dolby Digital
Идентификатор кодека : A_AC3
Продолжительность : 21 м. 30 с.
Вид битрейта : Постоянный
Битрейт : 192 Кбит/сек
Каналы : 2 канала
Channel layout : L R
Частота : 48,0 КГц
Частота кадров : 31,250 кадров/сек (1536 SPF)
Метод сжатия : С потерями
Размер потока : 29,5 Мбайт (4%)
Service kind : Complete Main
Default : Да
Forced : Нет

Раздача ведётся путём добавления новых серий

Внимание! Раздача ведётся путём добавления новых серий; при каждом добавлении создаётся новый торрент.
Чтобы начать докачку новой серии, пользователям необходимо сделать следующее:
1. Остановить скачивание;
2. Удалить старый торрент у себя из клиента (старые серии удалять не надо);
3. Скачать новый торрент и запустить его у себя в клиенте вместо старого, при этом указать клиенту путь в старую папку куда и должно происходить скачивание новых серий. Ваш клиент при этом должен произвести хеширование (проверку) старой папки и будет докачивать только те серии, которых у вас ещё нет. Старые серии при этом не удаляются, а продолжают раздаваться! Eсли вы уже удалили старые серии, то предотвратить повторную закачку старых серий можно, отжав галочку в соответствующих местах при запуске нового торрента.
Релиз от:

Release was prepared by RG Files-x

[Profile] [PM]
Display posts:    
Reply to topic

Current time is: 23-Jul 17:45

All times are UTC + 3



You cannot post new topics in this forum
You cannot reply to topics in this forum
You cannot edit your posts in this forum
You cannot delete your posts in this forum
You cannot vote in polls in this forum
You cannot attach files in this forum
You cannot download files in this forum