Бюро магических услуг / The Portable Door (2023) BDRip 1080p | Велес

Reply to topic
 
Author Message

HardwareMining ®

Gender: Male

Longevity: 4 years 9 months

Posts: 657

Post 06-Jul-2024 10:07

[Quote]

Бюро магических услуг / The Portable Door
Год выпуска: 2023
Жанр: фэнтези, комедия, детектив, приключения
Выпущено: Австралия | Jim Henson Company, The, MEP Capital
Режиссер: Джеффри Уокер
В ролях: Кристоф Вальц, Сэм Нил, Рэйчел Хаус, Миранда Отто, Патрик Гибсон, Софи Уайлд, Джессика Де Гау, Дэймон Херриман, Крис Пэнг, Диана Лин, Кристофер Соммерс, Джейсон Уайлдер
О фильме:
Самые обычные клерки работают в весьма необычной фирме. Здесь распутывают самые странные происшествия и занимаются поисками магических артефактов. Непримечательная парочка стажеров — исполнителей среднего звена — даже не подозревает, во что ввязалась, и думает лишь, как бы разобраться с рутиной до ужина, желательно не изменив ход истории и не повергнув Вселенную в хаос временных парадоксов. Иначе повышения им точно не видать.

Качество: BDRip 1080p
Видео: AVC, 1920x800 (2.40:1), 23,976 fps, 4800 Kbit/s (0.130 bit/pixel)
Аудио: русский, AC3, 5.1, 48 kHz, 384 kbps CBR
Продолжительность: 01:55:56
Перевод: Дублированный | Велес
Субтитры: Отсутствуют

Скриншоты

MediaInfo

General
Unique ID : 187235092882199022098827900205935884745 (0x8CDC2ACDC3586B4898B48C3D814FF9C9)
Complete name : E:\GF\The.Portable.Door.2023.BDRip.1080p.Rip.by.HardwareMining.R.G.Generalfilm.mkv
Format : Matroska
Format version : Version 4
File size : 4.20 GiB
Duration : 1 h 55 min
Overall bit rate : 5 186 kb/s
Frame rate : 23.976 FPS
Movie name : The.Portable.Door.2023.BDRip.1080p.Rip.by.HardwareMining.R.G.Generalfilm
Encoded date : 2024-07-05 15:49:21 UTC
Writing application : mkvmerge v6.8.0 ('Theme for Great Cities') 32bit built on Mar 2 2014 21:27:07
Writing library : libebml v1.3.0 + libmatroska v1.4.1
Cover : Yes
Attachments : cover.png
Video
ID : 1
Format : AVC
Format/Info : Advanced Video Codec
Format profile : High@L4.1
Format settings : CABAC / 4 Ref Frames
Format settings, CABAC : Yes
Format settings, Reference frames : 4 frames
Codec ID : V_MPEG4/ISO/AVC
Duration : 1 h 55 min
Bit rate : 4 800 kb/s
Width : 1 920 pixels
Height : 800 pixels
Display aspect ratio : 2.40:1
Frame rate mode : Constant
Frame rate : 23.976 FPS
Color space : YUV
Chroma subsampling : 4:2:0
Bit depth : 8 bits
Scan type : Progressive
Bits/(Pixel*Frame) : 0.130
Stream size : 3.81 GiB (91%)
Writing library : x264 core 130 r2273 b3065e6
Encoding settings : cabac=1 / ref=4 / deblock=1:-2:-1 / analyse=0x3:0x133 / me=umh / subme=10 / psy=1 / psy_rd=1.00:0.08 / mixed_ref=1 / me_range=32 / chroma_me=1 / trellis=2 / 8x8dct=1 / cqm=0 / deadzone=21,11 / fast_pskip=0 / chroma_qp_offset=-3 / threads=48 / lookahead_threads=6 / sliced_threads=0 / nr=0 / decimate=1 / interlaced=0 / bluray_compat=0 / constrained_intra=0 / bframes=11 / b_pyramid=2 / b_adapt=2 / b_bias=0 / direct=3 / weightb=1 / open_gop=0 / weightp=2 / keyint=250 / keyint_min=25 / scenecut=40 / intra_refresh=0 / rc=2pass / mbtree=0 / bitrate=4800 / ratetol=1.0 / qcomp=0.60 / qpmin=0 / qpmax=69 / qpstep=4 / cplxblur=20.0 / qblur=0.5 / ip_ratio=1.40 / pb_ratio=1.30 / aq=2:1.00
Language : English
Default : Yes
Forced : No
Color range : Limited
Color primaries : BT.709
Transfer characteristics : BT.709
Matrix coefficients : BT.709
Audio
ID : 2
Format : AC-3
Format/Info : Audio Coding 3
Commercial name : Dolby Digital
Codec ID : A_AC3
Duration : 1 h 55 min
Bit rate mode : Constant
Bit rate : 384 kb/s
Channel(s) : 6 channels
Channel layout : L R C LFE Ls Rs
Sampling rate : 48.0 kHz
Frame rate : 31.250 FPS (1536 SPF)
Compression mode : Lossy
Stream size : 318 MiB (7%)
Title : Dub | Велес
Language : Russian
Service kind : Complete Main
Default : Yes
Forced : No
Dialog Normalization : -31 dB
cmixlev : -3.0 dB
surmixlev : -6 dB
dialnorm_Average : -31 dB
dialnorm_Minimum : -31 dB
dialnorm_Maximum : -31 dB
Menu
00:00:00.000 : Chapter 01
00:14:12.435 : Chapter 02
00:22:59.837 : Chapter 03
00:34:30.402 : Chapter 04
00:42:38.264 : Chapter 05
00:54:15.794 : Chapter 06
01:08:21.014 : Chapter 07
01:18:43.302 : Chapter 08
01:32:44.267 : Chapter 09
01:41:21.742 : Chapter 10
01:45:45.089 : Chapter 11
01:48:48.939 : Chapter 1
Релиз от:
[Profile] [PM]
Display posts:    
Reply to topic

Current time is: 23-Jul 17:46

All times are UTC + 3



You cannot post new topics in this forum
You cannot reply to topics in this forum
You cannot edit your posts in this forum
You cannot delete your posts in this forum
You cannot vote in polls in this forum
You cannot attach files in this forum
You cannot download files in this forum