Великолепная пятерка [6 сезон: 1-49 серии из ?] (2023) WEB-DL 1080p от Files-x

Reply to topic
 
Author Message

bond74 ®

Gender: Male

Longevity: 5 years 3 months

Posts: 2266

Post 05-Dec-2023 22:03

[Quote]

Великолепная пятерка Год выпуска: 2023
Жанр: Детектив, драма
Выпущено: Россия, Кинокомпания "Триикс Медиа" по заказу Пятого канала
Режиссер: Сергей Полуянов (II), Михаил Тимофеев, Ратмир Лутфуллин, Александр Глинский, Арменак Назикян, Александр Колесник, Андрей Щербинин, Семен Копылов
В ролях: Павел Григорьев, Андрей Горбачёв, Алексей Красноцветов, Нодар Джанелидзе, Константин Гришанов, Егор Кутенков, Сергей Шоколов, Станислав Раевский, Андрей Перович, Людмила Бояринова, Полина Ульянова, Татьяна Ющина, Юлия Зоркина, Виктор Выбриенко, Олеся Бережная, Вероника Ляпкова, Анна Трофимычева, Матвей Воронин, Ольга Гордийчук, Сергей Выборнов
О фильме: Великолепная пятерка — популярный телевизионный сериал, который уже давно завоевал сердца многих зрителей. Уже пять сезонов подряд поклонники следят за увлекательными приключениями главных героев. Но всякий раз, когда сезон подходит к концу, фанаты задают один и тот же вопрос: когда же выйдет следующая серия, нового сезона? Великолепная пятерка — это не просто сериал о дружбе и любви, это настоящий эталон стиля и элегантности. Каждая серия наполнена загадками, интригами и романтикой. А главные герои — пятеро друзей, каждый из которых обладает своей уникальной личностью и талантами. Их приключения становятся все более захватывающими с каждым сезоном. Новый сезон будет содержать еще больше захватывающих сюжетных поворотов и неожиданных развязок. Постоянный состав актеров вернется , чтобы продолжить свои роли и удивить зрителей новыми эпизодами. Также известно, что создатели сериала обратят особое внимание на качество спецэффектов и визуальных эффектов. Зрители смогут насладиться потрясающей картинкой и зрелищными сценами. Не остается и сомнений, что новый сезон сериала «Великолепная пятерка» будет замечательным продолжением популярной и увлекательной истории.

Качество: WEB-DL 1080p
Видео: MPEG-4 AVC, ~ 2300 Кбит/с, 1920x1080
Аудио: AC3, 2 ch, 192 Кбит/с
Продолжительность: 35 х ~ 00:38:20
Язык: Русский
Cубтитры: Нет

Скриншоты




MediaInfo

Общее
Уникальный идентификатор : 231734809262287090642720471265404898217 (0xAE5680367E6DAABAA7CF4B03B15DCBA9)
Полное имя : C:\ШОУ\Великолепная пятерка.S06.2023.WEBRip 1080p.Files-x\03. Великолепная пятерка.S06.2023.WEBRip 1080p.Files-x.mkv
Формат : Matroska
Версия формата : Version 4
Размер файла : 526 Мбайт
Продолжительность : 39 м. 40 с.
Общий поток : 1 854 Кбит/сек
Частота кадров : 25,000 кадров/сек
Дата кодирования : 2023-12-05 12:43:48 UTC
Программа кодирования : mkvmerge v7.8.0 ('River Man') 32bit built on Apr 3 2015 12:11:22
Библиотека кодирования : libebml v1.3.1 + libmatroska v1.4.2
Видео
Идентификатор : 1
Формат : AVC
Формат/Информация : Advanced Video Codec
Профиль формата : High@L4
Настройки формата : CABAC / 3 Ref Frames
Параметр CABAC формата : Да
Параметр RefFrames формата : 3 кадра
Идентификатор кодека : V_MPEG4/ISO/AVC
Продолжительность : 39 м. 40 с.
Битрейт : 1 661 Кбит/сек
Ширина : 1 920 пикселей
Высота : 1 080 пикселей
Соотношение сторон : 16:9
Режим частоты кадров : Постоянный
Частота кадров : 25,000 кадров/сек
Цветовое пространство : YUV
Субдискретизация насыщенности : 4:2:0
Битовая глубина : 8 бит
Тип развёртки : Прогрессивная
Бит/(Пиксели*Кадры) : 0.032
Размер потока : 471 Мбайт (90%)
Библиотека кодирования : x264 core 155 r2901 7d0ff22
Default : Да
Forced : Нет
Цветовой диапазон : Limited
Основные цвета : BT.709
Характеристики трансфера : BT.709
Коэффициенты матрицы : BT.709
Аудио
Идентификатор : 2
Формат : AC-3
Формат/Информация : Audio Coding 3
Коммерческое название : Dolby Digital
Идентификатор кодека : A_AC3
Продолжительность : 39 м. 40 с.
Вид битрейта : Постоянный
Битрейт : 192 Кбит/сек
Каналы : 2 канала
Channel layout : L R
Частота : 44,1 КГц
Частота кадров : 28,711 кадров/сек (1536 SPF)
Метод сжатия : С потерями
Размер потока : 54,5 Мбайт (10%)
Service kind : Complete Main
Default : Да
Forced : Нет

Раздача ведётся путём добавления новых серий

Внимание! Раздача ведётся путём добавления новых серий; при каждом добавлении создаётся новый торрент.
Чтобы начать докачку новой серии, пользователям необходимо сделать следующее:
1. Остановить скачивание;
2. Удалить старый торрент у себя из клиента (старые серии удалять не надо);
3. Скачать новый торрент и запустить его у себя в клиенте вместо старого, при этом указать клиенту путь в старую папку куда и должно происходить скачивание новых серий. Ваш клиент при этом должен произвести хеширование (проверку) старой папки и будет докачивать только те серии, которых у вас ещё нет. Старые серии при этом не удаляются, а продолжают раздаваться! Eсли вы уже удалили старые серии, то предотвратить повторную закачку старых серий можно, отжав галочку в соответствующих местах при запуске нового торрента.
Релиз от:
[Profile] [PM]
Display posts:    
Reply to topic

Current time is: 02-Mar 07:31

All times are UTC + 3



You cannot post new topics in this forum
You cannot reply to topics in this forum
You cannot edit your posts in this forum
You cannot delete your posts in this forum
You cannot vote in polls in this forum
You cannot attach files in this forum
You cannot download files in this forum