И снова здравствуйте! [3 сезон: 1-3 серии из 10] (2024) WEB-DLRip от Files-x

Reply to topic
 
Author Message

patriot67 ®

Gender: Male

Longevity: 4 years 8 months

Posts: 325

Post 06-Jul-2024 19:54

[Quote]

И снова здравствуйте! Год выпуска: 2024
Жанр: Комедия, криминал
Выпущено: Россия, Кинокомпания «Медиаслово», Кинопоиск
Режиссер: Егор Чичканов
В ролях: Андрей Мерзликин, Денис Власенко, Павел Чинарёв, Любовь Толкалина, Николай Наумов, Полина Гухман, Влад Фельдман, Антон Лунин, Сергей Годин, Татьяна Струженкова, Кирилл Жандаров, Дмитрий Журавлёв (IV), Михаил Полицеймако, Сергей Епишев, Игорь Грабузов, Никита Дювбанов, Евгений Сангаджиев
О фильме: В предстоящем сезоне Борис начнет новую жизнь со своей семьей, поменяет имя и откроет долгожданную кондитерскую, но вот только счастья она ему не принесет. Герой ностальгирует о былых опасных временах, тем более, что бандитское прошлое, кажется, тоже не может его отпустить. Новый бизнес, как бельмо на глазу Гоши и его хладнокровной и жестокой матери, которая вернулась в страну налаживать дела. Теперь двум злейшим врагам Коле и Борису, придется объединиться, чтобы победить Гошу и его маму.

Качество: WEB-DLRip
Видео: XviD, ~ 1500 Кбит/с, 720x304, 25 кадр/с
Аудио: AC3, 6 ch, 448 Кбит/с
Продолжительность: 3 x ~ 00:28:09
Перевод: Не требуется
Cубтитры: Русские (full, SDH)

Скриншоты




MediaInfo

Общее
Полное имя : D:\films\И снова здравствуйте.S03.2024.WEB-DLRip.Files-x\01. И снова здравствуйте.S03.2024.WEB-DLRip.Files-x.avi
Формат : AVI
Формат/Информация : Audio Video Interleave
Настройки формата : BitmapInfoHeader / WaveFormatEx
Размер файла : 380 Мбайт
Продолжительность : 28 м. 9 с.
Общий поток : 1 887 Кбит/сек
Частота кадров : 25,000 кадров/сек
Программа кодирования : VirtualDubMod 1.5.10.3 | www.virtualdub-fr.org || (build 2550/release)
Библиотека кодирования : VirtualDubMod build 2550/release
Видео
Идентификатор : 0
Формат : MPEG-4 Visual
Профиль формата : Advanced Simple@L5
Настройки формата : BVOP1 / Custom Matrix
Параметр BVOP формата : 1
Параметр QPel формата : Нет
Параметр GMC формата : Без точки перехода
Параметр матрицы формата : Выборочная
Идентификатор кодека : XVID
Идентификатор кодека/Подсказка : XviD
Продолжительность : 28 м. 9 с.
Битрейт : 1 429 Кбит/сек
Ширина : 720 пикселей
Высота : 304 пикселя
Соотношение сторон : 2,35:1
Частота кадров : 25,000 кадров/сек
Цветовое пространство : YUV
Субдискретизация насыщенности : 4:2:0
Битовая глубина : 8 бит
Тип развёртки : Прогрессивная
Метод сжатия : С потерями
Бит/(Пиксели*Кадры) : 0.261
Размер потока : 288 Мбайт (76%)
Библиотека кодирования : XviD 73
Аудио
Идентификатор : 1
Формат : AC-3
Формат/Информация : Audio Coding 3
Коммерческое название : Dolby Digital
Идентификатор кодека : 2000
Продолжительность : 28 м. 9 с.
Вид битрейта : Постоянный
Битрейт : 448 Кбит/сек
Каналы : 6 каналов
Channel layout : L R C LFE Ls Rs
Частота : 48,0 КГц
Частота кадров : 31,250 кадров/сек (1536 SPF)
Метод сжатия : С потерями
Размер потока : 90,2 Мбайт (24%)
Выравнивание : Разделение по промежуткам
Продолжительность промежутка : 40 мс. (1,00 видеокадр)
Время предзагрузки промежутка : 500 мс.
Service kind : Complete Main

Внимание! Раздача ведётся путём добавления новых серий

Раздача ведётся путём добавления новых серий, при каждом добавлении создаётся новый торрент. Чтобы начать докачку новой серии, пользователям необходимо сделать следующее:
- Остановить скачивание.
- Удалить старый торрент у себя из клиента (старые серии удалять не надо).
- Скачать новый торрент и запустить его у себя в клиенте вместо старого, при этом указать клиенту путь в старую папку куда и должно происходить скачивание новых серий.
Ваш клиент при этом должен произвести хеширование (проверку) старой папки (если не производит сам - помогите ему сделать это), и будет докачивать только те серии которых у вас ещё нет. Старые серии при этом не удаляются, а продолжают раздаваться!
Релиз от:

Release was prepared by RG Files-x

[Profile] [PM]
Display posts:    
Reply to topic

Current time is: 23-Jul 18:23

All times are UTC + 3



You cannot post new topics in this forum
You cannot reply to topics in this forum
You cannot edit your posts in this forum
You cannot delete your posts in this forum
You cannot vote in polls in this forum
You cannot attach files in this forum
You cannot download files in this forum