Сто лет тому вперёд (2024) WEBRip от Generalfilm | КПК

Reply to topic
 
Author Message

mjjhec ®

Gender: Male

Longevity: 5 years 8 months

Posts: 2216

Location: СССР

Post 10-Jul-2024 14:54

[Quote]

Сто лет тому вперёд Год выпуска: 2024
Жанр: Фантастика, приключения
Выпущено: Россия, Кинокомпания «Водород», Арт Пикчерс Студия / Art Pictures Studio
Режиссер: Александр Андрющенко
В ролях: Даша Верещагина, Марк Эйдельштейн, Константин Хабенский, Виктория Исакова, Фёдор Бондарчук, Александр Петров, Юра Борисов, Софа Цибирева, Матвей Астраханцев, Кирилл Митрофанов.
О фильме: Они живут в разных мирах. Коля Герасимов - в сегодняшней Москве, Алиса Селезнева - на сто лет позже. Коля - обычный парень, ему нет дела до будущего. Алису не отпускает прошлое: она должна найти маму, которую потеряла, когда была совсем ребенком. Встреча Алисы и Коли станет началом невероятных приключений, в которых нашим героям предстоит отвоевать у космических пиратов Вселенную, восстановить ход времени и обрести самое дорогое: любовь и дружбу.
Качество: WEBRip | КПК
Видео: H.264, 640x264 (2.40:1), 24 fps, 400 kb/s
Аудио: AAC, 48 kHz, 2 ch, 128 kb/s
Продолжительность: 02:21:41
Перевод: Не требуется

Скриншоты


MediaInfo

Complete name : F:\Rip\Sto.let.tomu.vpered.2024.WEBRip.by.mjjhec.mp4
Format : MPEG-4
Format profile : Base Media
Codec ID : isom (isom/avc1)
File size : 538 MiB
Duration : 2 h 21 min
Overall bit rate mode : Variable
Overall bit rate : 531 kb/s
Frame rate : 24.000 FPS
Encoded date : 2024-07-10 08:33:27 UTC
Tagged date : 2024-07-10 08:33:27 UTC
Video
ID : 1
Format : AVC
Format/Info : Advanced Video Codec
Format profile : High@L4.1
Format settings : CABAC / 14 Ref Frames
Format settings, CABAC : Yes
Format settings, Reference : 14 frames
Codec ID : avc1
Codec ID/Info : Advanced Video Coding
Duration : 2 h 21 min
Bit rate : 400 kb/s
Maximum bit rate : 1 566 kb/s
Width : 640 pixels
Height : 264 pixels
Display aspect ratio : 2.40:1
Frame rate mode : Constant
Frame rate : 24.000 FPS
Color space : YUV
Chroma subsampling : 4:2:0
Bit depth : 8 bits
Scan type : Progressive
Bits/(Pixel*Frame) : 0.099
Stream size : 405 MiB (75%)
Writing library : x264 core 125 r2208 d9d2288
Encoding settings : cabac=1 / ref=14 / deblock=1:-1:-1 / analyse=0x3:0x113 / me=umh / subme=10 / psy=1 / psy_rd=1.00:0.10 / mixed_ref=1 / me_range=32 / chroma_me=1 / trellis=2 / 8x8dct=1 / cqm=0 / deadzone=21,11 / fast_pskip=0 / chroma_qp_offset=-3 / threads=6 / lookahead_threads=1 / sliced_threads=0 / nr=0 / decimate=0 / interlaced=0 / bluray_compat=0 / constrained_intra=0 / bframes=11 / b_pyramid=2 / b_adapt=2 / b_bias=0 / direct=3 / weightb=1 / open_gop=0 / weightp=2 / keyint=240 / keyint_min=23 / scenecut=40 / intra_refresh=0 / rc=2pass / mbtree=0 / bitrate=400 / ratetol=1.0 / qcomp=0.60 / qpmin=0 / qpmax=69 / qpstep=4 / cplxblur=20.0 / qblur=0.5 / ip_ratio=1.40 / pb_ratio=1.30 / aq=1:1.00
Encoded date : 2024-07-10 08:33:27 UTC
Tagged date : 2024-07-10 08:33:40 UTC
Codec configuration box : avcC
Audio
ID : 2
Format : AAC LC
Format/Info : Advanced Audio Codec Low Complexity
Codec ID : mp4a-40-2
Duration : 2 h 21 min
Bit rate mode : Variable
Bit rate : 128 kb/s
Maximum bit rate : 140 kb/s
Channel(s) : 2 channels
Channel layout : L R
Sampling rate : 48.0 kHz
Frame rate : 46.875 FPS (1024 SPF)
Compression mode : Lossy
Stream size : 130 MiB (24%)
Encoded date : 2024-07-10 08:33:37 UTC
Tagged date : 2024-07-10 08:33:40 UTC
Релиз от:
[Profile] [PM]
Display posts:    
Reply to topic

Current time is: 23-Jul 18:24

All times are UTC + 3



You cannot post new topics in this forum
You cannot reply to topics in this forum
You cannot edit your posts in this forum
You cannot delete your posts in this forum
You cannot vote in polls in this forum
You cannot attach files in this forum
You cannot download files in this forum