2023
Кукушки
WEB-DLRip-AVC
2023
Бумеранг
WEB-DLRip-AVC
2023
По воле случая
WEB-DLRip-AVC
2023
Принц и нищая
WEB-DLRip-AVC
2023
Книжная девочка
WEB-DLRip
2023
Наш спецназ
SATRip
2023
Трепачи
WEBRip
1999
VA
Золотой фонд. Кумиры прошлых лет - Я встретил вас
FLAC
2011
Ариэль
Вернёмся на озёра
FLAC
2002
Эдуард Хиль
Имена на все времена
APE
2004
Людмила Сенчина
Любовное настроение
APE
2007
Песни Александры Пахмутовой
Как молоды мы были
APE
2008
Эдуард Хиль
Белые ночи
APE
2002
VA
Роберт Рождественский • Пока я помню, я живу
FLAC
2008
Эдуард Хиль
Золотая коллекция ретро
FLAC
2019
Песняры
Владимир Мулявин. Повинуясь песенному дару...
FLAC
2003
Эдуард Хиль
Grand Collection
APE
1996
VA
Многое в жизни бывает
FLAC
2006
Вениамин Баснер
Ты и я
APE
2006
Валерий Ободзинский
Встреча
APE
1997
Владимир Пресняков ст.
Sax All Times World Hits
FLAC
2021
Лидия Клемент
Поёт Лидия Клемент
FLAC
2003
ВИА «Земляне»
Энциклопедия российского рока
FLAC
1995
VA
Огней так много золотых...
FLAC
1995
VA
Главное, ребята, сердцем не стареть
FLAC
2023
Крутая перемена
WEBRip-AVC
2023
СуперИвановы
WEBRip-AVC
2020
Need хелп
WEB-DLRip-AVC
2023
Книжная девочка
WEB-DLRip-AVC
2022
А у нас во дворе
HDTVRip

В чужом краю [1-13 серии из 13] (2018) HDTVRip от Files-x

Reply to topic
 
Author Message

Nicodem ®

Gender: Male

Longevity: 4 years 10 months

Posts: 1356

Post 17-Nov-2018 16:02

[Quote]

В чужом краю
Год выпуска: 2018
Жанр: Мелодрама
Выпущено: Россия, ООО "Кинокомпания Гамма"
Режиссер: Станислав Дремов
В ролях: Наталия Антонова, Ирина Розанова, Иван Оганесян, Юрий Батурин, Владимир Симонов, Екатерина Вуличенко, Анна Казючиц, Сергей Комаров (II), Ирина Рудоминская, Сергей Апрельский, Юлия Дробот, Вильгельмина Меттель, Даниил Коновалов (II), Полина Маршалл, Камилла Мухлисова
О фильме: Потеряв мужа и кров, Галина Кутепова приезжает с детьми и матерью в края, которые некогда были ей родными. Галина заново знакомится с отцом, которого не видела лет тридцать, ищет работу и смысл существования. Трудности, которые переносит героиня, закаляют ее, заставляют учиться принимать судьбоносные решения самостоятельно. Постепенно Галина обретает всё, о чём могла раньше только мечтать: новый дом, любимую работу и любимого мужчину. Однако внезапно к Галине возвращается муж, который тянет ее обратно – в старую жизнь...
Качество: HDTVRip
Видео: XviD, ~ 1745 Кбит/с, 720x400, 25 Кадр/с
Аудио: AC3, 2 ch, 192 Кбит/с
Продолжительность: 13 х 00:44:00
Перевод: Не требуется
Cубтитры: нет

Скриншоты





MediaInfo

Общее
Полное имя : C:\Users\DOM\Downloads\В чужом краю.2018.HDTVRip.by.Nicodem.Files-x\01.В чужом краю.2018.HDTVRip.by.Nicodem.Files-x.avi
Формат : AVI
Формат/Информация : Audio Video Interleave
Размер файла : 598 Мбайт
Продолжительность : 39 м.
Общий поток : 2115 Кбит/сек
Программа кодирования : VirtualDubMod 1.5.10.3 | www.virtualdub-fr.org || (build 2550/release)
Библиотека кодирования : VirtualDubMod build 2550/release
Видео
Идентификатор : 0
Формат : MPEG-4 Visual
Профиль формата : Advanced Simple@L5
Параметр BVOP формата : 1
Параметр QPel формата : Нет
Параметр GMC формата : Без точки перехода
Параметр матрицы формата : Выборочная
Идентификатор кодека : XVID
Идентификатор кодека/Подсказка : XviD
Продолжительность : 39 м.
Битрейт : 1745 Кбит/сек
Ширина : 720 пикс.
Высота : 400 пикс.
Соотношение сторон : 16:9
Частота кадров : 25,000 кадр/сек
Цветовое пространство : YUV
Подвыборка цветности : 4:2:0
Битовая глубина : 8 бит
Тип развёртки : Прогрессивная
Метод сжатия : С потерями
Бит/(Пиксели*Кадры) : 0.266
Размер потока : 541 Мбайт (90%)
Библиотека кодирования : XviD 73
Аудио
Идентификатор : 1
Формат : AC-3
Формат/Информация : Audio Coding 3
Расширение режима : CM (complete main)
Идентификатор кодека : 2000
Продолжительность : 39 м.
Вид битрейта : Постоянный
Битрейт : 192 Кбит/сек
Каналы : 2 канала
Расположение каналов : Front: L R
Частота : 48,0 КГц
Битовая глубина : 16 бит
Метод сжатия : С потерями
Размер потока : 54,3 Мбайт (9%)
Выравнивание : Разделение по промежуткам
Продолжительность промежутка : 40 мс. (1,00 видеокадр)
Время предзагрузки промежутка : 500 ms
Релиз от:

Release was prepared by RG Files-x

[Profile] [PM]
Display posts:    
Reply to topic

Current time is: 25-Sep 04:01

All times are UTC + 3



You cannot post new topics in this forum
You cannot reply to topics in this forum
You cannot edit your posts in this forum
You cannot delete your posts in this forum
You cannot vote in polls in this forum
You cannot attach files in this forum
You cannot download files in this forum