Следствие вели... с Леонидом Каневским. Сладкая женщина [02.12] (2018) WEBRip от GeneralFilm

Reply to topic
 
Author Message

olegka7373 ®

Gender: Male

Longevity: 9 months 9 days

Posts: 178

Location: Россия, Новокузнецк

Post 02-Dec-2018 18:06

[Quote]

Следствие вели... с Леонидом Каневским
Год выпуска: 2018
Жанр: Документальный, детектив, криминал, расследование, история
Выпущено: Россия, НТВ
Режиссер: Игорь Ромащенко, Борис Фёдоров
Ведущий: Леонид Каневский
О фильме: 1991 год, Москва. Кто-то выплескивает в лицо молодой женщине кислоту. Жертву с серьезными ожогами доставляют в больницу. Сыщики выясняют: Татьяна Носик пользовалась бешеным успехом у мужчин. Однако сама она избегала близких отношений, обжегшись на неудачном браке. Может, виноват бывший супруг, который не раз пытался вернуть Татьяну? В этот момент мужчину привозят в больницу с пробитой головой.
Качество: WEBRip
Видео: XviD, 1780 Кбит/с, 720x400
Аудио: Русский (AC3, 2 ch, 192 Кбит/с)
Продолжительность: 00:40:19
Перевод: Не требуется
Субтитры: нет

Скриншоты


MediaInfo

Общее
Полное имя : D:\Sledstvie.veli.(2018.12.02).WEBRip.GeneralFilm.avi
Формат : AVI
Формат/Информация : Audio Video Interleave
Размер файла : 572 Мбайт
Продолжительность : 40 м. 19 с.
Общий поток : 1981 Кбит/сек
Программа кодирования : VirtualDubMod 1.5.10.3 | www.virtualdub-fr.org || (build 2550/release)
Библиотека кодирования : VirtualDubMod build 2550/release
Видео
Идентификатор : 0
Формат : MPEG-4 Visual
Профиль формата : Advanced Simple@L5
Параметр BVOP формата : 1
Параметр QPel формата : Нет
Параметр GMC формата : Без точки перехода
Параметр матрицы формата : Выборочная
Идентификатор кодека : XVID
Идентификатор кодека/Подсказка : XviD
Продолжительность : 40 м. 19 с.
Битрейт : 1780 Кбит/сек
Ширина : 720 пикселей
Высота : 400 пикселей
Соотношение сторон : 16:9
Частота кадров : 25,000 кадров/сек
Цветовое пространство : YUV
Субдискретизация насыщенности : 4:2:0
Битовая глубина : 8 бит
Тип развёртки : Прогрессивная
Метод сжатия : С потерями
Бит/(Пиксели*Кадры) : 0.247
Размер потока : 513 Мбайт (90%)
Библиотека кодирования : XviD 1.2.1 (UTC 2008-12-04)
Аудио
Идентификатор : 1
Формат : AC-3
Формат/Информация : Audio Coding 3
Расширение режима : CM (complete main)
Параметр Endianness формата : Big
Идентификатор кодека : 2000
Продолжительность : 40 м. 19 с.
Вид битрейта : Постоянный
Битрейт : 192 Кбит/сек
Каналы : 2 канала
Расположение каналов : Front: L R
Частота : 48,0 КГц
Частота кадров : 31,250 кадров/сек (1536 spf)
Битовая глубина : 16 бит
Метод сжатия : С потерями
Размер потока : 55,4 Мбайт (10%)
Выравнивание : Разделение по промежуткам
Продолжительность промежутка : 40 мс. (1,00 видеокадр)
Время предзагрузки промежутка : 500 мс.
Релиз:
[Profile] [PM]
Display posts:    
Reply to topic

Current time is: 22-Aug 22:05

All times are UTC + 3



You cannot post new topics in this forum
You cannot reply to topics in this forum
You cannot edit your posts in this forum
You cannot delete your posts in this forum
You cannot vote in polls in this forum
You cannot attach files in this forum
You cannot download files in this forum