Возвращение к себе [1-4 серии из 4] (2018) WEBRip-AVC от Files-x

Reply to topic
 
Author Message

Серый1779 ®

Gender: Male

Longevity: 1 year

Posts: 694

Location: Украина

Post 19-Nov-2018 14:17

[Quote]

Возвращение к себе
Год выпуска: 2018
Жанр: Драма
Выпущено: Россия, Украина, StarMedia
Режиссер: Ева Стрельникова
В ролях: Татьяна Лялина, Дмитрий Сова, Игорь Иванов, Олег Масленников, Александр Крючков, Евгения Мягонькая, Ли Берлинская, Олег Москаленко, Ирина Тамим, Елена Лаврова, Сергей Радченко
О фильме: После победы в конкурсе красоты "Мисс Счастливое" Лену начинает преследовать маньяк. Он шлет ей письма с угрозами, звонит, нападает на темной улице и насилует девушку. Полиция разводит руками. Лена переезжает в другой город, но призраки прошлого продолжают ее преследовать. Девушке предстоит встретиться со своим страхом лицом к лицу и победить его...
Качество: WEBRip-AVC
Видео: MPEG-4 AVC, ~ 1600 Кбит/с, 1024x576, 25 кадр/с
Аудио: AC3, 2 ch, 192 Кбит/с
Продолжительность: 4 x ~ 00:47:00
Перевод: Не требуется
Субтитры: нет

Скриншоты


MediaInfo

Общее
Уникальный идентификатор : 251965713235048869557038013657196882858 (0xBD8ED4CA09403C7EAAE75A0D97896BAA)
Полное имя : F:\Возвращение к себе.(2018).WEBRip.(AVC).Files-x\01.Возвращение к себе.(2018).WEBRip.(AVC).by.Серый1779.Files-x.mkv
Формат : Matroska
Версия формата : Version 2
Размер файла : 607 Мбайт
Продолжительность : 47 м. 21 с.
Общий поток : 1793 Кбит/сек
Дата кодирования : UTC 2018-11-19 00:53:19
Программа кодирования : mkvmerge v7.8.0 ('River Man') 32bit built on Apr 3 2015 12:11:22
Библиотека кодирования : libebml v1.3.1 + libmatroska v1.4.2
Видео
Идентификатор : 1
Формат : AVC
Формат/Информация : Advanced Video Codec
Профиль формата : High@L4.1
Настройки формата : CABAC / 9 Ref Frames
Параметр CABAC формата : Да
Параметр RefFrames формата : 9 кадров
Идентификатор кодека : V_MPEG4/ISO/AVC
Продолжительность : 47 м. 21 с.
Битрейт : 1600 Кбит/сек
Ширина : 1024 пикселя
Высота : 576 пикселей
Соотношение сторон : 16:9
Режим частоты кадров : Постоянный
Частота кадров : 25,000 кадров/сек
Цветовое пространство : YUV
Субдискретизация насыщенности : 4:2:0
Битовая глубина : 8 бит
Тип развёртки : Прогрессивная
Бит/(Пиксели*Кадры) : 0.109
Размер потока : 530 Мбайт (87%)
Библиотека кодирования : x264 core 146 r2538 121396c
Настройки программы : cabac=1 / ref=9 / deblock=1:-2:-1 / analyse=0x3:0x133 / me=umh / subme=9 / psy=1 / psy_rd=1.00:0.15 / mixed_ref=1 / me_range=32 / chroma_me=1 / trellis=2 / 8x8dct=1 / cqm=0 / deadzone=21,11 / fast_pskip=0 / chroma_qp_offset=-3 / threads=18 / lookahead_threads=3 / sliced_threads=0 / nr=0 / decimate=1 / interlaced=0 / bluray_compat=0 / constrained_intra=0 / bframes=9 / b_pyramid=2 / b_adapt=2 / b_bias=0 / direct=1 / weightb=1 / open_gop=0 / weightp=2 / keyint=250 / keyint_min=25 / scenecut=40 / intra_refresh=0 / rc=2pass / mbtree=0 / bitrate=1600 / ratetol=1.0 / qcomp=0.60 / qpmin=0 / qpmax=69 / qpstep=4 / cplxblur=20.0 / qblur=0.5 / ip_ratio=1.40 / pb_ratio=1.30 / aq=2:1.00
Default : Да
Forced : Нет
Цветовой диапазон : Limited
Основные цвета : BT.709
Характеристики трансфера : BT.709
Коэффициенты матрицы : BT.709
Аудио
Идентификатор : 2
Формат : AC-3
Формат/Информация : Audio Coding 3
Параметр Endianness формата : Big
Идентификатор кодека : A_AC3
Продолжительность : 47 м. 21 с.
Вид битрейта : Постоянный
Битрейт : 192 Кбит/сек
Каналы : 2 канала
Расположение каналов : Front: L R
Частота : 48,0 КГц
Частота кадров : 31,250 кадров/сек (1536 SPF)
Битовая глубина : 16 бит
Метод сжатия : С потерями
Размер потока : 65,0 Мбайт (11%)
ServiceKind/String : Complete Main
Default : Да
Forced : Нет
Релиз от:
[Profile] [PM]
Display posts:    
Reply to topic

Current time is: 21-Nov 12:40

All times are UTC + 3



You cannot post new topics in this forum
You cannot reply to topics in this forum
You cannot edit your posts in this forum
You cannot delete your posts in this forum
You cannot vote in polls in this forum
You cannot attach files in this forum
You cannot download files in this forum