Паук [1-52 серии из 52] (2017) WEB-DLRip от Files-x

Reply to topic
 
Author Message

bond74 ®

Gender: Male

Longevity: 1 year

Posts: 697

Post 27-Nov-2018 17:09

[Quote]

Паук Год выпуска: 2017
Жанр: Детектив
Выпущено: Россия, Промоушн Фильм
Режиссер: Наталия Микрюкова, Константин Фролов, Михаил Жерневский
В ролях: Валерий Панков, Нелла Стрекаловская, Марина Бойко, Александра Киселёва (II), Андрей Андриевский, Игорь Сильченко, Татьяна Абраменко, Анастасия Борисова (I), Виталий Бродовский, Павел Демьянов, Алексей Толстов, Григорий Шариков, Алексей Вакулов, Владимир Колосов, Майя Вознесенская, Александр Воробьёв, Елена Коллегова, Александр Левин, Юлия Ковалевская
О фильме: Глеб живет стерильной жизнью в герметичном мире. Он дышит воздухом без микробов и допускает только дистиллированные отношения — без эмпатии, привязанности и прочей «грязи». Он смотрит на мир через окно — окно браузера. Впрочем, это его работа: Глеб — гениальный хакер, который борется с преступностью. Его ник — Паук. Он раскрывает самые сложные дела — те, за которые полиция даже не возьмется из-за давления, профнепригодности, коррупции или просто лени. Паук может «взломать» или подобрать пароль к чему угодно. Кроме собственной жизни.
Качество: WEB-DLRip
Видео: XviD, ~ 1 533 Кбит/с, 720x400, 25 кадр/с
Аудио: AC3, 2 ch, 192 Кбит/с
Продолжительность: 52 x ~ 00:45:00:00
Перевод: Не требуется
Субтитры: нет

Скриншоты

MediaInfo

General
Complete name : E:\Pauk.2017.WEB-DLRip.Files-x\01.Pauk.2017.WEB-DLRip.Files-x.avi
Format : AVI
Format/Info : Audio Video Interleave
File size : 601 MiB
Duration : 48mn 27s
Overall bit rate : 1 735 Kbps
Writing application : VirtualDubMod 1.5.10.3 | www.virtualdub-fr.org || (build 2550/release)
Writing library : VirtualDubMod build 2550/release
Video
ID : 0
Format : MPEG-4 Visual
Format profile : Advanced Simple@L5
Format settings, BVOP : 1
Format settings, QPel : No
Format settings, GMC : No warppoints
Format settings, Matrix : Custom
Codec ID : XVID
Codec ID/Hint : XviD
Duration : 48mn 27s
Bit rate : 1 533 Kbps
Width : 720 pixels
Height : 400 pixels
Display aspect ratio : 16:9
Frame rate : 25.000 fps
Color space : YUV
Chroma subsampling : 4:2:0
Bit depth : 8 bits
Scan type : Progressive
Compression mode : Lossy
Bits/(Pixel*Frame) : 0.213
Stream size : 531 MiB (88%)
Writing library : XviD 73
Audio
ID : 1
Format : AC-3
Format/Info : Audio Coding 3
Mode extension : CM (complete main)
Format settings, Endianness : Big
Codec ID : 2000
Duration : 48mn 27s
Bit rate mode : Constant
Bit rate : 192 Kbps
Channel(s) : 2 channels
Channel positions : Front: L R
Sampling rate : 48.0 KHz
Compression mode : Lossy
Stream size : 66.6 MiB (11%)
Alignment : Split accross interleaves
Interleave, duration : 40 ms (1.00 video frame)
Interleave, preload duration : 500 ms
Релиз от:
[Profile] [PM]
Display posts:    
Reply to topic

Current time is: 10-Dec 20:25

All times are UTC + 3



You cannot post new topics in this forum
You cannot reply to topics in this forum
You cannot edit your posts in this forum
You cannot delete your posts in this forum
You cannot vote in polls in this forum
You cannot attach files in this forum
You cannot download files in this forum