Паук [1-52 серии из 52] (2017) WEB-DL 720p от Files-x

Reply to topic
 
Author Message

bond74 ®

Gender: Male

Longevity: 11 months 5 days

Posts: 664

Post 30-Nov-2018 10:00

[Quote]

Паук Год выпуска: 2017
Жанр: Детектив
Выпущено: Россия, Промоушн Фильм
Режиссер: Наталия Микрюкова, Константин Фролов, Михаил Жерневский
В ролях: Валерий Панков, Нелла Стрекаловская, Марина Бойко, Александра Киселёва (II), Андрей Андриевский, Игорь Сильченко, Татьяна Абраменко, Анастасия Борисова (I), Виталий Бродовский, Павел Демьянов, Алексей Толстов, Григорий Шариков, Алексей Вакулов, Владимир Колосов, Майя Вознесенская, Александр Воробьёв, Елена Коллегова, Александр Левин, Юлия Ковалевская
О фильме: Глеб живет стерильной жизнью в герметичном мире. Он дышит воздухом без микробов и допускает только дистиллированные отношения — без эмпатии, привязанности и прочей «грязи». Он смотрит на мир через окно — окно браузера. Впрочем, это его работа: Глеб — гениальный хакер, который борется с преступностью. Его ник — Паук. Он раскрывает самые сложные дела — те, за которые полиция даже не возьмется из-за давления, профнепригодности, коррупции или просто лени. Паук может «взломать» или подобрать пароль к чему угодно. Кроме собственной жизни.
Качество: WEB-DL 720p
Видео: MPEG-4 AVC, ~ 3500 Кбит/с, 1280x720, 25 кадр/с
Аудио: AC3, 2 ch, 192 Кбит/с
Продолжительность: 52 x ~ 00:45:00:00
Перевод: Не требуется
Субтитры: нет

Скриншоты

MediaInfo

General
Unique ID : 285918262230023165407667767492074944777 (0xD719DAB29787C22D15A383A201CA3909)
Complete name : H:\Pauk.2017.WEB-DL.720.Files-x\02.Pauk.2017.WEB-DL.720.Files-x.mkv
Format : Matroska
File size : 1.25 GiB
Duration : 48mn 28s
Overall bit rate : 3 687 Kbps
Writing application : Lavf56.25.101
Writing library : Lavf56.25.101
Video
ID : 1
Format : AVC
Format/Info : Advanced Video Codec
Format profile : High@L4.1
Format settings, CABAC : Yes
Format settings, ReFrames : 5 frames
Codec ID : V_MPEG4/ISO/AVC
Duration : 48mn 28s
Bit rate : 3 500 Kbps
Width : 1 280 pixels
Height : 720 pixels
Display aspect ratio : 16:9
Frame rate mode : Variable
Frame rate : 50.000 fps
Color space : YUV
Chroma subsampling : 4:2:0
Bit depth : 8 bits
Scan type : Progressive
Bits/(Pixel*Frame) : 0.076
Stream size : 1.16 GiB (93%)
Writing library : x264 core 148
Encoding settings : cabac=1 / ref=5 / deblock=1:0:0 / analyse=0x3:0x113 / me=hex / subme=8 / psy=1 / psy_rd=1.00:0.00 / mixed_ref=1 / me_range=16 / chroma_me=1 / trellis=2 / 8x8dct=1 / cqm=0 / deadzone=21,11 / fast_pskip=1 / chroma_qp_offset=-2 / threads=1 / lookahead_threads=1 / sliced_threads=0 / nr=0 / decimate=1 / interlaced=0 / bluray_compat=0 / constrained_intra=0 / bframes=3 / b_pyramid=2 / b_adapt=1 / b_bias=0 / direct=3 / weightb=1 / open_gop=0 / weightp=2 / keyint=250 / keyint_min=25 / scenecut=0 / intra_refresh=0 / rc_lookahead=50 / rc=abr / mbtree=1 / bitrate=3500 / ratetol=1.0 / qcomp=0.60 / qpmin=0 / qpmax=69 / qpstep=4 / ip_ratio=1.40 / aq=1:1.00
Language : English
Audio
ID : 2
Format : AC-3
Format/Info : Audio Coding 3
Mode extension : CM (complete main)
Codec ID : A_AC3
Duration : 48mn 28s
Bit rate mode : Constant
Bit rate : 192 Kbps
Channel(s) : 2 channels
Channel positions : Front: L R
Sampling rate : 44.1 KHz
Bit depth : 16 bits
Compression mode : Lossy
Delay relative to video : 1mn 5s
Stream size : 66.6 MiB (5%)
Language : un
Релиз от:
[Profile] [PM]
Display posts:    
Reply to topic

Current time is: 19-Oct 21:35

All times are UTC + 3



You cannot post new topics in this forum
You cannot reply to topics in this forum
You cannot edit your posts in this forum
You cannot delete your posts in this forum
You cannot vote in polls in this forum
You cannot attach files in this forum
You cannot download files in this forum