Форма воды / The Shape of Water (2017) BDRip 720p

Reply to topic
 
Author Message

sergey82 ®

Gender: Male

Longevity: 5 months 4 days

Posts: 142

Location: Украина

Post 27-Nov-2018 21:08

[Quote]

Форма воды / The Shape of Water
Год выпуска: 2017
Жанр: Фэнтези, драма, приключения
Выпущено: Канада, США, Fox Searchlight Pictures
Режиссер: Гильермо Дель Торо
В ролях: Салли Хокинс, Майкл Шеннон, Ричард Дженкинс, Октавия Спенсер, Майкл Стулбарг, Даг Джонс, Дэвид Хьюлетт, Ник Сирси, Стюарт Арнотт, Найджел Беннетт
О фильме: 1962 год. Холодная война империалистов всех мастей против остального прогрессивного человечества разрывает мир на части с особым цинизмом. Элайза - немая и скромная от рождения "серая мышка" с серой жизнью, живет на чердаке городского кинотеатра, работает менеджером по уборке территории в сверхсекретной военной лаборатории в Балтиморе и испытывает легкое недомогание от отсутствия крепкого мужского плеча. Однажды в лабораторию привозят новый "объект" для опытов. Элайза узнает, что это существо - гуманоид мужского пола с мелкими недостатками в виде внешности амфибии. Она начинает исподволь присматриваться к существу, подкармливать его вареными яйцами под романтическую музыку, кокетничать и вообще всячески строить ему глазки. Постепенно между ними возникает полная любовь и взаимопонимание. И когда человека-амфибию окончательно решают убить и препарировать для дальнейшего изучения, Элайза организовывает своему возлюбленному дерзкий побег.
Качество: BDRip 720p
Видео: MPEG-4 AVC, 5992 Кбит/с, 1280x694, 23.976 кадр/с
Аудио: Русский (DTS, 6 ch, 768 Кбит/с), (DTS, 6 ch, 1509 Кбит/с), украинский (AC3, 6 ch, 448 Кбит/с), английский (DTS, 6 ch, 1509 Кбит/с), (AC3, 6 ch, 448 Кбит/с)
Продолжительность: 02:03:19
Перевод: Профессиональный (дублированный), авторский
Cубтитры: русские, английские, украинские

МедиаИнфо

Общее
Уникальный идентификатор : 245556543899647917705013750626698611228 (0xB8BC78580ED33217B1A34F0010534A1C)
Полное имя : D:\The.Shape.of.Water 2017.720p.BluRay.2xRus.Ukr.2xEng.BLUEBIRD.mkv
Формат : Matroska
Версия формата : Version 2
Размер файла : 9,38 Гбайт
Продолжительность : 2 ч. 3 м.
Общий поток : 10,9 Мбит/сек
Название фильма : The Shape of Water (2017) - Release for BLUEBIRD
Дата кодирования : UTC 2018-11-25 17:23:42
Программа кодирования : mkvmerge v5.8.0 ('No Sleep / Pillow') built on Sep 2 2012 15:37:04
Библиотека кодирования : libebml v1.2.3 + libmatroska v1.3.0
Обложка : Yes
Attachments : cover.jpg / logfile.log
Видео
Идентификатор : 1
Формат : AVC
Формат/Информация : Advanced Video Codec
Профиль формата : High@L4.1
Настройки формата : CABAC / 9 Ref Frames
Параметр CABAC формата : Да
Параметр RefFrames формата : 9 кадров
Идентификатор кодека : V_MPEG4/ISO/AVC
Продолжительность : 2 ч. 3 м.
Битрейт : 5992 Кбит/сек
Ширина : 1280 пикселей
Высота : 694 пикселя
Соотношение сторон : 1,85:1
Режим частоты кадров : Постоянный
Частота кадров : 23,976 (24000/1001) кадра/сек
Цветовое пространство : YUV
Субдискретизация насыщенности : 4:2:0
Битовая глубина : 8 бит
Тип развёртки : Прогрессивная
Бит/(Пиксели*Кадры) : 0.281
Размер потока : 5,16 Гбайт (55%)
Заголовок : The Shape of Water (2017) - Release for BLUEBIRD
Библиотека кодирования : x264 core 152 r2851kMod ba24899
Настройки программы : cabac=1 / ref=9 / deblock=1:-3:-3 / analyse=0x3:0x133 / me=umh / subme=11 / psy=1 / fade_compensate=0.00 / psy_rd=1.15:0.00 / mixed_ref=1 / me_range=32 / chroma_me=1 / trellis=2 / 8x8dct=1 / cqm=0 / deadzone=21,11 / fast_pskip=0 / chroma_qp_offset=-2 / threads=12 / lookahead_threads=3 / sliced_threads=0 / nr=0 / decimate=0 / interlaced=0 / bluray_compat=0 / constrained_intra=0 / bframes=12 / b_pyramid=2 / b_adapt=2 / b_bias=0 / direct=3 / weightb=1 / open_gop=0 / weightp=2 / keyint=240 / keyint_min=23 / scenecut=40 / intra_refresh=0 / rc=crf / mbtree=0 / crf=16.0000 / qcomp=0.70 / qpmin=0 / qpmax=69 / qpstep=4 / ip_ratio=1.15 / pb_ratio=1.10 / aq=3:0.85
Язык : English
Default : Да
Forced : Нет
Аудио #1
Идентификатор : 2
Формат : DTS
Формат/Информация : Digital Theater Systems
Идентификатор кодека : A_DTS
Продолжительность : 2 ч. 3 м.
Вид битрейта : Постоянный
Битрейт : 768 Кбит/сек
Каналы : 6 каналов
Расположение каналов : Front: L C R, Side: L R, LFE
Частота : 48,0 КГц
Частота кадров : 93,750 кадра/сек (512 SPF)
Битовая глубина : 24 бит
Метод сжатия : С потерями
Размер потока : 677 Мбайт (7%)
Заголовок : Дубляж, Blu-ray EUR
Язык : Russian
Default : Да
Forced : Нет
Аудио #2
Идентификатор : 3
Формат : DTS
Формат/Информация : Digital Theater Systems
Идентификатор кодека : A_DTS
Продолжительность : 2 ч. 3 м.
Вид битрейта : Постоянный
Битрейт : 1509 Кбит/сек
Каналы : 6 каналов
Расположение каналов : Front: L C R, Side: L R, LFE
Частота : 48,0 КГц
Частота кадров : 93,750 кадра/сек (512 SPF)
Битовая глубина : 24 бит
Метод сжатия : С потерями
Размер потока : 1,30 Гбайт (14%)
Заголовок : Одноголосый закадровый, С.Визгунов
Язык : Russian
Default : Нет
Forced : Нет
Аудио #3
Идентификатор : 4
Формат : AC-3
Формат/Информация : Audio Coding 3
Идентификатор кодека : A_AC3
Продолжительность : 2 ч. 3 м.
Вид битрейта : Постоянный
Битрейт : 448 Кбит/сек
Каналы : 6 каналов
Расположение каналов : Front: L C R, Side: L R, LFE
Частота : 48,0 КГц
Частота кадров : 31,250 кадров/сек (1536 SPF)
Битовая глубина : 16 бит
Метод сжатия : С потерями
Размер потока : 395 Мбайт (4%)
Заголовок : Дубляж, Blu-ray EUR
Язык : Ukrainian
ServiceKind/String : Complete Main
Default : Нет
Forced : Нет
Аудио #4
Идентификатор : 5
Формат : DTS
Формат/Информация : Digital Theater Systems
Идентификатор кодека : A_DTS
Продолжительность : 2 ч. 3 м.
Вид битрейта : Постоянный
Битрейт : 1509 Кбит/сек
Каналы : 6 каналов
Расположение каналов : Front: L C R, Side: L R, LFE
Частота : 48,0 КГц
Частота кадров : 93,750 кадра/сек (512 SPF)
Битовая глубина : 24 бит
Метод сжатия : С потерями
Размер потока : 1,30 Гбайт (14%)
Язык : English
Default : Нет
Forced : Нет
Аудио #5
Идентификатор : 6
Формат : AC-3
Формат/Информация : Audio Coding 3
Идентификатор кодека : A_AC3
Продолжительность : 2 ч. 3 м.
Вид битрейта : Постоянный
Битрейт : 448 Кбит/сек
Каналы : 6 каналов
Расположение каналов : Front: L C R, Side: L R, LFE
Частота : 48,0 КГц
Частота кадров : 31,250 кадров/сек (1536 SPF)
Битовая глубина : 16 бит
Метод сжатия : С потерями
Размер потока : 395 Мбайт (4%)
Заголовок : Descriptive
Язык : English
ServiceKind/String : Complete Main
Default : Нет
Forced : Нет
Текст #1
Идентификатор : 7
Формат : UTF-8
Идентификатор кодека : S_TEXT/UTF8
Идентификатор кодека/Информация : UTF-8 Plain Text
Заголовок : iTunes Russia
Язык : Russian
Default : Нет
Forced : Нет
Текст #2
Идентификатор : 8
Формат : UTF-8
Идентификатор кодека : S_TEXT/UTF8
Идентификатор кодека/Информация : UTF-8 Plain Text
Заголовок : FOCS
Язык : Russian
Default : Нет
Forced : Нет
Текст #3
Идентификатор : 9
Формат : UTF-8
Идентификатор кодека : S_TEXT/UTF8
Идентификатор кодека/Информация : UTF-8 Plain Text
Заголовок : Forced
Язык : Ukrainian
Default : Нет
Forced : Нет
Текст #4
Идентификатор : 10
Формат : UTF-8
Идентификатор кодека : S_TEXT/UTF8
Идентификатор кодека/Информация : UTF-8 Plain Text
Заголовок : Full
Язык : Ukrainian
Default : Нет
Forced : Нет
Текст #5
Идентификатор : 11
Формат : UTF-8
Идентификатор кодека : S_TEXT/UTF8
Идентификатор кодека/Информация : UTF-8 Plain Text
Заголовок : Forced
Язык : English
Default : Нет
Forced : Нет
Текст #6
Идентификатор : 12
Формат : UTF-8
Идентификатор кодека : S_TEXT/UTF8
Идентификатор кодека/Информация : UTF-8 Plain Text
Заголовок : Full
Язык : English
Default : Нет
Forced : Нет
Текст #7
Идентификатор : 13
Формат : UTF-8
Идентификатор кодека : S_TEXT/UTF8
Идентификатор кодека/Информация : UTF-8 Plain Text
Заголовок : SDH
Язык : English
Default : Нет
Forced : Нет
Текст #8
Идентификатор : 14
Формат : UTF-8
Идентификатор кодека : S_TEXT/UTF8
Идентификатор кодека/Информация : UTF-8 Plain Text
Заголовок : SDH Colored
Язык : English
Default : Нет
Forced : Нет
Меню
00:00:00.000 : :Chapter 01
00:06:24.467 : :Chapter 02
00:12:54.774 : :Chapter 03
00:18:32.986 : :Chapter 04
00:23:45.590 : :Chapter 05
00:29:39.652 : :Chapter 06
00:35:29.836 : :Chapter 07
00:39:30.534 : :Chapter 08
00:42:42.434 : :Chapter 09
00:48:34.036 : :Chapter 10
00:52:26.935 : :Chapter 11
00:57:30.196 : :Chapter 12
01:01:52.542 : :Chapter 13
01:07:35.551 : :Chapter 14
01:12:13.495 : :Chapter 15
01:17:50.791 : :Chapter 16
01:21:17.122 : :Chapter 17
01:26:05.910 : :Chapter 18
01:32:48.479 : :Chapter 19
01:37:18.749 : :Chapter 20
01:43:24.114 : :Chapter 21
01:46:06.610 : :Chapter 22
01:50:31.666 : :Chapter 23
01:58:34.857 : :Chapter 24

Скриншоты



[Profile] [PM]
Display posts:    
Reply to topic

Current time is: 23-Apr 10:01

All times are UTC + 3



You cannot post new topics in this forum
You cannot reply to topics in this forum
You cannot edit your posts in this forum
You cannot delete your posts in this forum
You cannot vote in polls in this forum
You cannot attach files in this forum
You cannot download files in this forum