Форма воды / The Shape of Water (2017) BDRip 1080p | Лицензия

Reply to topic
 
Author Message

Monk ®

Gender: Male

Longevity: 5 months 8 days

Posts: 5440

Location: Казань

Post 28-Nov-2018 12:45

[Quote]

Форма воды / The Shape of Water Год выпуска: 2017
Жанр: Фэнтези, драма, приключения
Выпущено: Канада, США, Fox Searchlight Pictures
Режиссер: Гильермо Дель Торо
В ролях: Салли Хокинс, Майкл Шеннон, Ричард Дженкинс, Октавия Спенсер, Майкл Стулбарг, Даг Джонс, Дэвид Хьюлетт, Ник Сирси, Стюарт Арнотт, Найджел Беннетт
О фильме: 1962 год. Холодная война империалистов всех мастей против остального прогрессивного человечества разрывает мир на части с особым цинизмом. Элайза - немая и скромная от рождения "серая мышка" с серой жизнью, живет на чердаке городского кинотеатра, работает менеджером по уборке территории в сверхсекретной военной лаборатории в Балтиморе и испытывает легкое недомогание от отсутствия крепкого мужского плеча. Однажды в лабораторию привозят новый "объект" для опытов. Элайза узнает, что это существо - гуманоид мужского пола с мелкими недостатками в виде внешности амфибии. Она начинает исподволь присматриваться к существу, подкармливать его вареными яйцами под романтическую музыку, кокетничать и вообще всячески строить ему глазки. Постепенно между ними возникает полная любовь и взаимопонимание. И когда человека-амфибию окончательно решают убить и препарировать для дальнейшего изучения, Элайза организовывает своему возлюбленному дерзкий побег.

Качество: BDRip 1080p
Видео: MPEG-4 AVC, 12.3 Мбит/с, 1920x1036
Аудио: Русский (DTS, 6 ch, 768 Кбит/с), (AC3, 6 ch, 448 Кбит/с), украинский (AC3, 6 ch, 448 Кбит/с), английский (DTS, 6 ch, 1510 Кбит/с)
Продолжительность: 02:03:19
Перевод: Дублированный [Лицензия]
Субтитры: Русские, английские, украинские

Скриншоты



MediaInfo

General
Unique ID : 212755782627847568032612858802024794810 (0xA00F45F4659DC15E9F01CA019EA8CABA)
Complete name : C:\Video111\The.Shape.of.Water.2017.Lic.BDRip.1080p.ExKinoRay.mkv
Format : Matroska
Format version : Version 4 / Version 2
File size : 13.3 GiB
Duration : 2 h 3 min
Overall bit rate : 15.5 Mb/s
Movie name : The Shape of Water 2017 from ExKinoRay
Encoded date : UTC 2018-05-17 20:20:55
Writing application : mkvmerge v7.3.0 ('Nouages') 64bit built on Oct 22 2014 18:53:34
Writing library : libebml v1.3.0 + libmatroska v1.4.1
Video
ID : 1
Format : AVC
Format/Info : Advanced Video Codec
Format profile : High@L4.1
Format settings : CABAC / 4 Ref Frames
Format settings, CABAC : Yes
Format settings, ReFrames : 4 frames
Codec ID : V_MPEG4/ISO/AVC
Duration : 2 h 3 min
Bit rate : 12.3 Mb/s
Width : 1 920 pixels
Height : 1 036 pixels
Display aspect ratio : 1.85:1
Frame rate mode : Constant
Frame rate : 23.976 (24000/1001) FPS
Color space : YUV
Chroma subsampling : 4:2:0
Bit depth : 8 bits
Scan type : Progressive
Bits/(Pixel*Frame) : 0.258
Stream size : 10.6 GiB (79%)
Writing library : x264 core 148 r2705 3f5ed56
Encoding settings : cabac=1 / ref=4 / deblock=1:-2:-2 / analyse=0x3:0x133 / me=umh / subme=11 / psy=1 / psy_rd=1.05:0.05 / mixed_ref=1 / me_range=48 / chroma_me=1 / trellis=2 / 8x8dct=1 / cqm=0 / deadzone=21,11 / fast_pskip=0 / chroma_qp_offset=-3 / threads=16 / lookahead_threads=4 / sliced_threads=0 / nr=0 / decimate=0 / interlaced=0 / bluray_compat=0 / constrained_intra=0 / bframes=8 / b_pyramid=2 / b_adapt=2 / b_bias=0 / direct=3 / weightb=1 / open_gop=0 / weightp=2 / keyint=240 / keyint_min=23 / scenecut=40 / intra_refresh=0 / rc_lookahead=50 / rc=2pass / mbtree=0 / bitrate=12300 / ratetol=1.0 / qcomp=0.60 / qpmin=0 / qpmax=69 / qpstep=4 / cplxblur=20.0 / qblur=0.5 / vbv_maxrate=50000 / vbv_bufsize=62500 / nal_hrd=none / filler=0 / ip_ratio=1.40 / pb_ratio=1.30 / aq=3:0.80
Language : English
Default : Yes
Forced : No
Audio #1
ID : 2
Format : DTS
Format/Info : Digital Theater Systems
Codec ID : A_DTS
Duration : 2 h 3 min
Bit rate mode : Constant
Bit rate : 768 kb/s
Channel(s) : 6 channels
Channel positions : Front: L C R, Side: L R, LFE
Sampling rate : 48.0 kHz
Frame rate : 93.750 FPS (512 SPF)
Bit depth : 24 bits
Compression mode : Lossy
Stream size : 677 MiB (5%)
Title : Dub [License]
Language : Russian
Default : Yes
Forced : Yes
Audio #2
ID : 3
Format : AC-3
Format/Info : Audio Coding 3
Codec ID : A_AC3
Duration : 2 h 3 min
Bit rate mode : Constant
Bit rate : 448 kb/s
Channel(s) : 6 channels
Channel positions : Front: L C R, Side: L R, LFE
Sampling rate : 48.0 kHz
Frame rate : 31.250 FPS (1536 SPF)
Bit depth : 16 bits
Compression mode : Lossy
Stream size : 395 MiB (3%)
Title : Dub [License]
Language : Russian
Service kind : Complete Main
Default : No
Forced : No
Audio #3
ID : 4
Format : AC-3
Format/Info : Audio Coding 3
Codec ID : A_AC3
Duration : 2 h 3 min
Bit rate mode : Constant
Bit rate : 448 kb/s
Channel(s) : 6 channels
Channel positions : Front: L C R, Side: L R, LFE
Sampling rate : 48.0 kHz
Frame rate : 31.250 FPS (1536 SPF)
Bit depth : 16 bits
Compression mode : Lossy
Stream size : 395 MiB (3%)
Title : Dub [License]
Language : Ukrainian
Service kind : Complete Main
Default : No
Forced : No
Audio #4
ID : 5
Format : DTS
Format/Info : Digital Theater Systems
Codec ID : A_DTS
Duration : 2 h 3 min
Bit rate mode : Constant
Bit rate : 1 509 kb/s
Channel(s) : 6 channels
Channel positions : Front: L C R, Side: L R, LFE
Sampling rate : 48.0 kHz
Frame rate : 93.750 FPS (512 SPF)
Bit depth : 24 bits
Compression mode : Lossy
Stream size : 1.30 GiB (10%)
Title : Original
Language : English
Default : No
Forced : No
Text #1
ID : 6
Format : UTF-8
Codec ID : S_TEXT/UTF8
Codec ID/Info : UTF-8 Plain Text
Duration : 1 h 58 min
Bit rate : 1 b/s
Count of elements : 61
Stream size : 1.38 KiB (0%)
Title : forced
Language : Russian
Default : Yes
Forced : Yes
Text #2
ID : 7
Format : UTF-8
Codec ID : S_TEXT/UTF8
Codec ID/Info : UTF-8 Plain Text
Duration : 2 h 1 min
Bit rate : 69 b/s
Count of elements : 1264
Stream size : 61.8 KiB (0%)
Title : full
Language : Russian
Default : No
Forced : No
Text #3
ID : 8
Format : UTF-8
Codec ID : S_TEXT/UTF8
Codec ID/Info : UTF-8 Plain Text
Duration : 1 h 47 min
Bit rate : 5 b/s
Count of elements : 167
Stream size : 4.49 KiB (0%)
Title : forced
Language : Ukrainian
Default : No
Forced : No
Text #4
ID : 9
Format : UTF-8
Codec ID : S_TEXT/UTF8
Codec ID/Info : UTF-8 Plain Text
Duration : 2 h 1 min
Bit rate : 71 b/s
Count of elements : 1398
Stream size : 64.1 KiB (0%)
Title : full
Language : Ukrainian
Default : No
Forced : No
Text #5
ID : 10
Format : UTF-8
Codec ID : S_TEXT/UTF8
Codec ID/Info : UTF-8 Plain Text
Duration : 1 h 57 min
Bit rate : 67 b/s
Count of elements : 1016
Stream size : 58.2 KiB (0%)
Title : Full v.2
Language : Russian
Default : No
Forced : No
Text #6
ID : 11
Format : UTF-8
Codec ID : S_TEXT/UTF8
Codec ID/Info : UTF-8 Plain Text
Duration : 1 h 47 min
Bit rate : 3 b/s
Count of elements : 169
Stream size : 2.51 KiB (0%)
Title : Forced
Language : English
Default : No
Forced : No
Text #7
ID : 12
Format : UTF-8
Codec ID : S_TEXT/UTF8
Codec ID/Info : UTF-8 Plain Text
Duration : 1 h 56 min
Bit rate : 43 b/s
Count of elements : 1307
Stream size : 36.8 KiB (0%)
Title : Full
Language : English
Default : No
Forced : No
Text #8
ID : 13
Format : UTF-8
Codec ID : S_TEXT/UTF8
Codec ID/Info : UTF-8 Plain Text
Duration : 2 h 2 min
Bit rate : 56 b/s
Count of elements : 1925
Stream size : 51.3 KiB (0%)
Title : SDH
Language : English
Default : No
Forced : No
Menu
00:00:00.000 : en:00:00:00.000
00:06:24.467 : en:00:06:24.467
00:12:54.774 : en:00:12:54.774
00:18:32.987 : en:00:18:32.987
00:23:45.591 : en:00:23:45.591
00:29:39.653 : en:00:29:39.653
00:35:29.836 : en:00:35:29.836
00:39:30.535 : en:00:39:30.535
00:42:42.435 : en:00:42:42.435
00:48:34.036 : en:00:48:34.036
00:52:26.935 : en:00:52:26.935
00:57:30.197 : en:00:57:30.197
01:01:52.542 : en:01:01:52.542
01:07:35.551 : en:01:07:35.551
01:12:13.496 : en:01:12:13.496
01:17:50.791 : en:01:17:50.791
01:21:17.122 : en:01:21:17.122
01:26:05.911 : en:01:26:05.911
01:32:48.480 : en:01:32:48.480
01:37:18.750 : en:01:37:18.750
01:43:24.115 : en:01:43:24.115
01:46:06.610 : en:01:46:06.610
01:50:31.667 : en:01:50:31.667
01:58:34.858 : en:01:58:34.858
[Profile] [PM]
Display posts:    
Reply to topic

Current time is: 23-Apr 10:00

All times are UTC + 3



You cannot post new topics in this forum
You cannot reply to topics in this forum
You cannot edit your posts in this forum
You cannot delete your posts in this forum
You cannot vote in polls in this forum
You cannot attach files in this forum
You cannot download files in this forum