Ночь идёт за нами / The Night Comes for Us (2018) WEB-DLRip

Reply to topic
 
Author Message

Monk ®

Gender: Male

Longevity: 9 months 6 days

Posts: 7909

Location: Казань

Post 29-Nov-2018 09:10

[Quote]

Ночь идёт за нами / The Night Comes for Us Год выпуска: 2018
Жанр: Боевик, триллер, криминал
Выпущено: Индонезия, Screenplay Infinite Films
Режиссер: Тимо Тьяджанто
В ролях: Джо Таслим, Ико Уайс, Джули Эстелль, Санни Пан, Зак Ли, Шарифа Дааниш, Ханна аль Рашид, Диан Састровардойо, Эпи Куснандар, Салвита Декорте
О фильме: При выполнении очередного задания киллер триады нарушил правила - не смог заставить себя убрать последнюю свидетельницу. В спасении жизни девочки он увидел знак и шанс на искупление, но у такого поступка будут серьезные последствия, и теперь отступнику предстоит иметь дело со всей убийственной мощью своей преступной организации.

Качество: WEB-DLRip
Видео: XviD, 1981 Кбит/с, 720x304
Аудио: АС3, 6 ch, 448 Кбит/с
Продолжительность: 02:00:48
Перевод: Авторский [Юрий Сербин]

Скриншоты


MediaInfo

Общее
Полное имя : D:Фильмы на трекерНочь идёт за нами (боевик, криминал 2018 год).avi
Формат : AVI
Формат/Информация : Audio Video Interleave
Профиль формата : OpenDML
Размер файла : 2,06 Гбайт
Продолжительность : 2 ч. 0 м.
Общий поток : 2441 Кбит/сек
Программа кодирования : VirtualDubMod 1.5.10.2 (build 2540/release)
Библиотека кодирования : VirtualDubMod build 2540/release
Видео
Идентификатор : 0
Формат : MPEG-4 Visual
Профиль формата : Advanced Simple@L5
Параметр BVOP формата : 2
Параметр QPel формата : Нет
Параметр GMC формата : Без точки перехода
Параметр матрицы формата : Выборочная
Идентификатор кодека : XVID
Идентификатор кодека/Подсказка : XviD
Продолжительность : 2 ч. 0 м.
Битрейт : 1981 Кбит/сек
Ширина : 720 пикселей
Высота : 304 пикселя
Соотношение сторон : 2,35:1
Частота кадров : 23,976 (23976/1000) кадра/сек
Цветовое пространство : YUV
Субдискретизация насыщенности : 4:2:0
Битовая глубина : 8 бит
Тип развёртки : Прогрессивная
Метод сжатия : С потерями
Бит/(Пиксели*Кадры) : 0.377
Размер потока : 1,67 Гбайт (81%)
Библиотека кодирования : XviD 73
Аудио
Идентификатор : 1
Формат : AC-3
Формат/Информация : Audio Coding 3
Расширение режима : CM (complete main)
Параметр Endianness формата : Big
Идентификатор кодека : 2000
Продолжительность : 2 ч. 0 м.
Вид битрейта : Постоянный
Битрейт : 448 Кбит/сек
Каналы : 6 каналов
Расположение каналов : Front: L C R, Side: L R, LFE
Частота : 48,0 КГц
Частота кадров : 31,250 кадров/сек (1536 spf)
Метод сжатия : С потерями
Размер потока : 387 Мбайт (18%)
Выравнивание : Разделение по промежуткам
Продолжительность промежутка : 42 мс. (1,00 видеокадр)
Время предзагрузки промежутка : 500 мс.
[Profile] [PM]
Display posts:    
Reply to topic

Current time is: 20-Aug 20:23

All times are UTC + 3



You cannot post new topics in this forum
You cannot reply to topics in this forum
You cannot edit your posts in this forum
You cannot delete your posts in this forum
You cannot vote in polls in this forum
You cannot attach files in this forum
You cannot download files in this forum