Ночь идёт за нами / The Night Comes for Us (2018) WEBRip 1080p

Reply to topic
 
Author Message

Monk ®

Gender: Male

Longevity: 11 months 2 days

Posts: 8973

Location: Казань

Post 22-Nov-2018 10:48

[Quote]

Ночь идёт за нами / The Night Comes for Us Год выпуска: 2018
Жанр: Боевик, триллер, криминал
Выпущено: Индонезия, Screenplay Infinite Films
Режиссер: Тимо Тьяджанто
В ролях: Джо Таслим, Ико Уайс, Джули Эстелль, Санни Пан, Зак Ли, Шарифа Дааниш, Ханна аль Рашид, Диан Састровардойо, Эпи Куснандар, Салвита Декорте
О фильме: При выполнении очередного задания киллер триады нарушил правила - не смог заставить себя убрать последнюю свидетельницу. В спасении жизни девочки он увидел знак и шанс на искупление, но у такого поступка будут серьезные последствия, и теперь отступнику предстоит иметь дело со всей убийственной мощью своей преступной организации.

Качество: WEBRip 1080p
Видео: MPEG-4 AVC,12.0 Mбит/с, 1920x804, 23.976 кадр/с
Аудио: Русский (АС3, 2ch, 192 Кбит/с), индонезийский (АС3, 6ch, 384 Кбит/с)
Продолжительность: 02:00:48
Перевод: Профессиональный многоголосый [HDrezka Studio]
Субтитры: Русские, английские, испанские, французские, немецкие и др.(см. инфо-файл)

Скриншоты



MediaInfo

General
Unique ID : 208331196844279993551567867445856870622 (0x9CBB21087424E941BC95FBAF17AAA0DE)
Complete name : The.Night.Comes.for.Us.2018.WEBRip.1080p.mkv
Format : Matroska
Format version : Version 4
File size : 10.6 GiB
Duration : 2 h 0 min
Overall bit rate : 12.5 Mb/s
Encoded date : UTC 2018-12-01 10:03:04
Writing application : mkvmerge v7.1.0 ('Good Love') 64bit built on Jul 27 2014 13:06:55
Writing library : libebml v1.3.0 + libmatroska v1.4.1
Video
ID : 1
Format : AVC
Format/Info : Advanced Video Codec
Format profile : High@L4.1
Format settings : CABAC / 5 Ref Frames
Format settings, CABAC : Yes
Format settings, ReFrames : 5 frames
Codec ID : V_MPEG4/ISO/AVC
Duration : 2 h 0 min
Bit rate : 12.0 Mb/s
Width : 1 920 pixels
Height : 804 pixels
Display aspect ratio : 2.40:1
Frame rate mode : Constant
Frame rate : 23.976 (24000/1001) FPS
Color space : YUV
Chroma subsampling : 4:2:0
Bit depth : 8 bits
Scan type : Progressive
Bits/(Pixel*Frame) : 0.323
Stream size : 10.1 GiB (95%)
Writing library : x264 core 157 r2932+2 (master: 303c484 / tmod: 1b88d0a) [X86_64]
Encoding settings : cabac=1 / ref=5 / deblock=1:-3:-3 / analyse=0x3:0x133 / me=umh / subme=11 / psy=1 / psy_rd=1.05:0.15 / mixed_ref=1 / me_range=48 / chroma_me=1 / trellis=2 / 8x8dct=1 / cqm=0 / deadzone=6,6 / fast_pskip=0 / chroma_qp_offset=-3 / threads=25 / lookahead_threads=6 / sliced_threads=0 / nr=0 / decimate=0 / interlaced=0 / bluray_compat=0 / constrained_intra=0 / bframes=10 / b_pyramid=2 / b_adapt=2 / b_bias=0 / direct=3 / weightb=1 / open_gop=0 / weightp=2 / keyint=250 / keyint_min=23 / scenecut=40 / intra_refresh=0 / rc_lookahead=60 / rc=crf / mbtree=0 / crf=17.0 / qcomp=0.70 / qpmin=0 / qpmax=69 / qpstep=4 / vbv_maxrate=62500 / vbv_bufsize=78125 / crf_max=0.0 / nal_hrd=none / filler=0 / ip_ratio=1.25 / pb_ratio=1.20 / aq=3:0.75
Language : English
Default : Yes
Forced : No
Audio #1
ID : 2
Format : AC-3
Format/Info : Audio Coding 3
Commercial name : Dolby Digital
Codec ID : A_AC3
Duration : 2 h 0 min
Bit rate mode : Constant
Bit rate : 192 kb/s
Channel(s) : 2 channels
Channel layout : L R
Sampling rate : 48.0 kHz
Frame rate : 31.250 FPS (1536 SPF)
Bit depth : 16 bits
Compression mode : Lossy
Stream size : 166 MiB (2%)
Language : Russian
Service kind : Complete Main
Default : Yes
Forced : No
Audio #2
ID : 3
Format : AC-3
Format/Info : Audio Coding 3
Commercial name : Dolby Digital
Codec ID : A_AC3
Duration : 2 h 0 min
Bit rate mode : Constant
Bit rate : 384 kb/s
Channel(s) : 6 channels
Channel layout : L R C LFE Ls Rs
Sampling rate : 48.0 kHz
Frame rate : 31.250 FPS (1536 SPF)
Bit depth : 16 bits
Compression mode : Lossy
Stream size : 332 MiB (3%)
Language : Indonesian
Service kind : Complete Main
Default : No
Forced : No
Text #1
ID : 4
Format : UTF-8
Codec ID : S_TEXT/UTF8
Codec ID/Info : UTF-8 Plain Text
Duration : 2 h 0 min
Bit rate : 29 b/s
Count of elements : 541
Stream size : 25.9 KiB (0%)
Title : Russian
Language : Russian
Default : No
Forced : No
Text #2
ID : 5
Format : UTF-8
Codec ID : S_TEXT/UTF8
Codec ID/Info : UTF-8 Plain Text
Duration : 1 h 48 min
Bit rate : 16 b/s
Count of elements : 448
Stream size : 12.9 KiB (0%)
Title : English (Forced)
Language : English
Default : No
Forced : No
Text #3
ID : 6
Format : UTF-8
Codec ID : S_TEXT/UTF8
Codec ID/Info : UTF-8 Plain Text
Duration : 1 h 48 min
Bit rate : 16 b/s
Count of elements : 448
Stream size : 12.9 KiB (0%)
Title : English
Language : English
Default : No
Forced : No
Text #4
ID : 7
Format : UTF-8
Codec ID : S_TEXT/UTF8
Codec ID/Info : UTF-8 Plain Text
Duration : 2 h 0 min
Bit rate : 32 b/s
Count of elements : 543
Stream size : 28.3 KiB (0%)
Title : Arabic
Language : Arabic
Default : No
Forced : No
Text #5
ID : 8
Format : UTF-8
Codec ID : S_TEXT/UTF8
Codec ID/Info : UTF-8 Plain Text
Duration : 2 h 0 min
Bit rate : 17 b/s
Count of elements : 544
Stream size : 15.4 KiB (0%)
Title : Chinese (Simplified)
Language : Chinese
Default : No
Forced : No
Text #6
ID : 9
Format : UTF-8
Codec ID : S_TEXT/UTF8
Codec ID/Info : UTF-8 Plain Text
Duration : 2 h 0 min
Bit rate : 17 b/s
Count of elements : 545
Stream size : 15.1 KiB (0%)
Title : Chinese (Traditional)
Language : Chinese
Default : No
Forced : No
Text #7
ID : 10
Format : UTF-8
Codec ID : S_TEXT/UTF8
Codec ID/Info : UTF-8 Plain Text
Duration : 2 h 0 min
Bit rate : 17 b/s
Count of elements : 536
Stream size : 15.4 KiB (0%)
Title : Danish
Language : Danish
Default : No
Forced : No
Text #8
ID : 11
Format : UTF-8
Codec ID : S_TEXT/UTF8
Codec ID/Info : UTF-8 Plain Text
Duration : 2 h 0 min
Bit rate : 16 b/s
Count of elements : 535
Stream size : 14.6 KiB (0%)
Title : Dutch
Language : Dutch
Default : No
Forced : No
Text #9
ID : 12
Format : UTF-8
Codec ID : S_TEXT/UTF8
Codec ID/Info : UTF-8 Plain Text
Duration : 2 h 0 min
Bit rate : 15 b/s
Count of elements : 531
Stream size : 13.8 KiB (0%)
Title : Finnish
Language : Finnish
Default : No
Forced : No
Text #10
ID : 13
Format : UTF-8
Codec ID : S_TEXT/UTF8
Codec ID/Info : UTF-8 Plain Text
Duration : 2 h 0 min
Bit rate : 16 b/s
Count of elements : 535
Stream size : 14.6 KiB (0%)
Title : French
Language : French
Default : No
Forced : No
Text #11
ID : 14
Format : UTF-8
Codec ID : S_TEXT/UTF8
Codec ID/Info : UTF-8 Plain Text
Duration : 2 h 0 min
Bit rate : 17 b/s
Count of elements : 540
Stream size : 15.6 KiB (0%)
Title : German
Language : German
Default : No
Forced : No
Text #12
ID : 15
Format : UTF-8
Codec ID : S_TEXT/UTF8
Codec ID/Info : UTF-8 Plain Text
Duration : 2 h 0 min
Bit rate : 30 b/s
Count of elements : 544
Stream size : 27.2 KiB (0%)
Title : Greek
Language : Greek
Default : No
Forced : No
Text #13
ID : 16
Format : UTF-8
Codec ID : S_TEXT/UTF8
Codec ID/Info : UTF-8 Plain Text
Duration : 2 h 0 min
Bit rate : 28 b/s
Count of elements : 535
Stream size : 24.8 KiB (0%)
Title : Hebrew
Language : Hebrew
Default : No
Forced : No
Text #14
ID : 17
Format : UTF-8
Codec ID : S_TEXT/UTF8
Codec ID/Info : UTF-8 Plain Text
Duration : 2 h 0 min
Bit rate : 17 b/s
Count of elements : 543
Stream size : 15.6 KiB (0%)
Title : Indonesian
Language : Indonesian
Default : No
Forced : No
Text #15
ID : 18
Format : UTF-8
Codec ID : S_TEXT/UTF8
Codec ID/Info : UTF-8 Plain Text
Duration : 2 h 0 min
Bit rate : 25 b/s
Count of elements : 802
Stream size : 22.4 KiB (0%)
Title : Indonesian (SDH)
Language : Indonesian
Default : No
Forced : No
Text #16
ID : 19
Format : UTF-8
Codec ID : S_TEXT/UTF8
Codec ID/Info : UTF-8 Plain Text
Duration : 2 h 0 min
Bit rate : 17 b/s
Count of elements : 538
Stream size : 15.3 KiB (0%)
Title : Italian
Language : Italian
Default : No
Forced : No
Text #17
ID : 20
Format : UTF-8
Codec ID : S_TEXT/UTF8
Codec ID/Info : UTF-8 Plain Text
Duration : 2 h 0 min
Bit rate : 17 b/s
Count of elements : 585
Stream size : 15.5 KiB (0%)
Title : Japanese
Language : Japanese
Default : No
Forced : No
Text #18
ID : 21
Format : UTF-8
Codec ID : S_TEXT/UTF8
Codec ID/Info : UTF-8 Plain Text
Duration : 2 h 0 min
Bit rate : 19 b/s
Count of elements : 545
Stream size : 17.0 KiB (0%)
Title : Korean
Language : Korean
Default : No
Forced : No
Text #19
ID : 22
Format : UTF-8
Codec ID : S_TEXT/UTF8
Codec ID/Info : UTF-8 Plain Text
Duration : 2 h 0 min
Bit rate : 17 b/s
Count of elements : 541
Stream size : 15.6 KiB (0%)
Title : Norwegian
Language : Norwegian
Default : No
Forced : No
Text #20
ID : 23
Format : UTF-8
Codec ID : S_TEXT/UTF8
Codec ID/Info : UTF-8 Plain Text
Duration : 2 h 0 min
Bit rate : 17 b/s
Count of elements : 537
Stream size : 15.3 KiB (0%)
Title : Polish
Language : Polish
Default : No
Forced : No
Text #21
ID : 24
Format : UTF-8
Codec ID : S_TEXT/UTF8
Codec ID/Info : UTF-8 Plain Text
Duration : 2 h 0 min
Bit rate : 17 b/s
Count of elements : 543
Stream size : 15.7 KiB (0%)
Title : Portuguese
Language : Portuguese
Default : No
Forced : No
Text #22
ID : 25
Format : UTF-8
Codec ID : S_TEXT/UTF8
Codec ID/Info : UTF-8 Plain Text
Duration : 2 h 0 min
Bit rate : 17 b/s
Count of elements : 549
Stream size : 15.4 KiB (0%)
Title : Portuguese (Brazilian)
Language : Portuguese
Default : No
Forced : No
Text #23
ID : 26
Format : UTF-8
Codec ID : S_TEXT/UTF8
Codec ID/Info : UTF-8 Plain Text
Duration : 2 h 0 min
Bit rate : 17 b/s
Count of elements : 545
Stream size : 15.5 KiB (0%)
Title : Romanian
Language : Romanian
Default : No
Forced : No
Text #24
ID : 27
Format : UTF-8
Codec ID : S_TEXT/UTF8
Codec ID/Info : UTF-8 Plain Text
Duration : 2 h 0 min
Bit rate : 17 b/s
Count of elements : 543
Stream size : 15.4 KiB (0%)
Title : Spanish
Language : Spanish
Default : No
Forced : No
Text #25
ID : 28
Format : UTF-8
Codec ID : S_TEXT/UTF8
Codec ID/Info : UTF-8 Plain Text
Duration : 2 h 0 min
Bit rate : 17 b/s
Count of elements : 544
Stream size : 15.7 KiB (0%)
Title : Spanish
Language : Spanish
Default : No
Forced : No
Text #26
ID : 29
Format : UTF-8
Codec ID : S_TEXT/UTF8
Codec ID/Info : UTF-8 Plain Text
Duration : 2 h 0 min
Bit rate : 17 b/s
Count of elements : 521
Stream size : 15.5 KiB (0%)
Title : Swedish
Language : Swedish
Default : No
Forced : No
Text #27
ID : 30
Format : UTF-8
Codec ID : S_TEXT/UTF8
Codec ID/Info : UTF-8 Plain Text
Duration : 2 h 0 min
Bit rate : 46 b/s
Count of elements : 545
Stream size : 41.1 KiB (0%)
Title : Thai
Language : Thai
Default : No
Forced : No
Text #28
ID : 31
Format : UTF-8
Codec ID : S_TEXT/UTF8
Codec ID/Info : UTF-8 Plain Text
Duration : 2 h 0 min
Bit rate : 18 b/s
Count of elements : 542
Stream size : 16.0 KiB (0%)
Title : Turkish
Language : Turkish
Default : No
Forced : No
[Profile] [PM]
Display posts:    
Reply to topic

Current time is: 16-Oct 13:49

All times are UTC + 3



You cannot post new topics in this forum
You cannot reply to topics in this forum
You cannot edit your posts in this forum
You cannot delete your posts in this forum
You cannot vote in polls in this forum
You cannot attach files in this forum
You cannot download files in this forum