Красная вдова [1-8 серии из 8] (2014) WEB-DLRip от Files-x

Reply to topic
 
Author Message

papa1951deda ®

Gender: Male

Longevity: 5 months 2 days

Posts: 220

Location: Казахстан

Post 29-Nov-2018 16:42

[Quote]

Красная вдова Год выпуска: 2014
Жанр: Криминальная драма
Выпущено: ВайТ Медиа
Режиссёр: Игорь Штернберг, Алексей Чистиков
В ролях: Виктория Толстоганова, Евгений Сидихин, Алексей Макаров, Владимир Юматов, Сергей Габриэлян, Андрей Финягин, Степан Коршунов, Эдуард Чекмазов, Елена Ручкина, Игорь Штернберг, Карина Зверева, Максим Ковалевский, Эрик Холявко-Гришин
О фильме: Остросюжетная криминальная сага о женщине, вынужденной пойти на всё ради счастья и благополучия своей семьи. Главная героиня сериала Полина — домохозяйка, чье счастье разрушается в один миг: преступники на глазах сына убивают ее мужа, а брат попадает в тюрьму. Выясняется, что оба участвовали в контрабанде наркотиков и перешли дорогу опасному человеку. На женщину сваливаются проблемы семьи, шантаж со стороны кредиторов, а также бизнес супруга, оказавшийся незаконным. Героине ничего не остается, кроме как найти в себе силы и возглавить преступный бизнес, параллельно разбираясь в том, кто и за что убил ее мужа.
Качество: WEB-DLRip
Видео: XviD, ~ 1500 Кбит/с, 720x400, 25 кадр/с
Аудио: AC3, 2 ch, 192 Кбит/с
Продолжительность: 8 x ~ 00:51:04
Перевод: Не требуется
Субтитры: Нет

Скриншоты

MediaInfo

General
Complete name : D:\моё видио\Vdova.2014. WEB-DLRip. Files-x\01.Vdova.2014. WEB-DLRip. Files.avi
Format : AVI
Format/Info : Audio Video Interleave
File size : 655 MiB
Duration : 52mn 22s
Overall bit rate : 1 750 Kbps
Writing application : VirtualDubMod 1.5.10.3 | www.virtualdub-fr.org || (build 2550/release)
Writing library : VirtualDubMod build 2550/release
Video
ID : 0
Format : MPEG-4 Visual
Format profile : Advanced Simple@L5
Format settings, BVOP : 2
Format settings, QPel : No
Format settings, GMC : No warppoints
Format settings, Matrix : Custom
Codec ID : XVID
Codec ID/Hint : XviD
Duration : 52mn 22s
Bit rate : 1 548 Kbps
Width : 720 pixels
Height : 400 pixels
Display aspect ratio : 16:9
Frame rate : 25.000 fps
Color space : YUV
Chroma subsampling : 4:2:0
Bit depth : 8 bits
Scan type : Progressive
Compression mode : Lossy
Bits/(Pixel*Frame) : 0.215
Stream size : 580 MiB (88%)
Writing library : XviD 73
Audio
ID : 1
Format : AC-3
Format/Info : Audio Coding 3
Mode extension : CM (complete main)
Format settings, Endianness : Big
Codec ID : 2000
Duration : 52mn 22s
Bit rate mode : Constant
Bit rate : 192 Kbps
Channel(s) : 2 channels
Channel positions : Front: L R
Sampling rate : 48.0 KHz
Bit depth : 16 bits
Compression mode : Lossy
Stream size : 71.9 MiB (11%)
Alignment : Split accross interleaves
Interleave, duration : 40 ms (1.00 video frame)
Interleave, preload duration : 500 ms
Релиз от:
[Profile] [PM]
Display posts:    
Reply to topic

Current time is: 22-Apr 18:23

All times are UTC + 3



You cannot post new topics in this forum
You cannot reply to topics in this forum
You cannot edit your posts in this forum
You cannot delete your posts in this forum
You cannot vote in polls in this forum
You cannot attach files in this forum
You cannot download files in this forum