Красная вдова [1-8 серии из 8] (2014) HDTVRip-AVC от Files-x

Reply to topic
 
Author Message

papa1951deda ®

Gender: Male

Longevity: 11 months

Posts: 332

Location: Казахстан

Post 29-Nov-2018 16:54

[Quote]

Красная вдова Год выпуска: 2014
Жанр: Криминальная драма
Выпущено: ВайТ Медиа
Режиссёр: Игорь Штернберг, Алексей Чистиков
В ролях: Виктория Толстоганова, Евгений Сидихин, Алексей Макаров, Владимир Юматов, Сергей Габриэлян, Андрей Финягин, Степан Коршунов, Эдуард Чекмазов, Елена Ручкина, Игорь Штернберг, Карина Зверева, Максим Ковалевский, Эрик Холявко-Гришин
О фильме: Остросюжетная криминальная сага о женщине, вынужденной пойти на всё ради счастья и благополучия своей семьи. Главная героиня сериала Полина — домохозяйка, чье счастье разрушается в один миг: преступники на глазах сына убивают ее мужа, а брат попадает в тюрьму. Выясняется, что оба участвовали в контрабанде наркотиков и перешли дорогу опасному человеку. На женщину сваливаются проблемы семьи, шантаж со стороны кредиторов, а также бизнес супруга, оказавшийся незаконным. Героине ничего не остается, кроме как найти в себе силы и возглавить преступный бизнес, параллельно разбираясь в том, кто и за что убил ее мужа.
Качество: WEB-DLRip-AVC
Видео: MPEG-4 AVC, ~ 2000 Кбит/с, 1024x576, 25 кадр/с
Аудио: AC3, 2 ch, 192 Кбит/с
Продолжительность: 8 x ~ 00:51:04
Перевод: Не требуется
Субтитры: Нет

Скриншоты

MediaInfo

General
Unique ID : 233360234543480659326796356512277421601 (0xAF8F8BDDD53A8A51B2FDB9A70C155E21)
Complete name : D:\моё видио\Vdova.2014.HDTVRip.AVC.Files-x\Vdova.(01.seriya.iz.08).2014.HDTVRip.(AVC).by.Серый1779.Files-x.mkv
Format : Matroska
Format version : Version 2
File size : 810 MiB
Duration : 51mn 38s
Overall bit rate : 2 193 Kbps
Encoded date : UTC 2016-03-08 04:42:02
Writing application : mkvmerge v6.1.0 ('Old Devil') built on Mar 4 2013 09:10:42
Writing library : libebml v1.3.0 + libmatroska v1.4.0
Video
ID : 1
Format : AVC
Format/Info : Advanced Video Codec
Format profile : High@L4.1
Format settings, CABAC : Yes
Format settings, ReFrames : 9 frames
Codec ID : V_MPEG4/ISO/AVC
Duration : 51mn 38s
Bit rate : 2 000 Kbps
Width : 1 024 pixels
Height : 576 pixels
Display aspect ratio : 16:9
Frame rate mode : Constant
Frame rate : 25.000 fps
Color space : YUV
Chroma subsampling : 4:2:0
Bit depth : 8 bits
Scan type : Progressive
Bits/(Pixel*Frame) : 0.136
Stream size : 723 MiB (89%)
Writing library : x264 core 130 r2273 b3065e6
Encoding settings : cabac=1 / ref=9 / deblock=1:-2:-1 / analyse=0x3:0x133 / me=umh / subme=9 / psy=1 / psy_rd=1.00:0.15 / mixed_ref=1 / me_range=32 / chroma_me=1 / trellis=2 / 8x8dct=1 / cqm=0 / deadzone=21,11 / fast_pskip=0 / chroma_qp_offset=-3 / threads=6 / lookahead_threads=1 / sliced_threads=0 / nr=0 / decimate=1 / interlaced=0 / bluray_compat=0 / constrained_intra=0 / bframes=9 / b_pyramid=2 / b_adapt=2 / b_bias=0 / direct=1 / weightb=1 / open_gop=0 / weightp=2 / keyint=250 / keyint_min=25 / scenecut=40 / intra_refresh=0 / rc=2pass / mbtree=0 / bitrate=2000 / ratetol=1.0 / qcomp=0.60 / qpmin=0 / qpmax=69 / qpstep=4 / cplxblur=20.0 / qblur=0.5 / ip_ratio=1.40 / pb_ratio=1.30 / aq=2:1.00
Default : Yes
Forced : No
Color primaries : BT.709
Transfer characteristics : BT.709
Matrix coefficients : BT.709
Audio
ID : 2
Format : AC-3
Format/Info : Audio Coding 3
Mode extension : CM (complete main)
Format settings, Endianness : Big
Codec ID : A_AC3
Duration : 51mn 38s
Bit rate mode : Constant
Bit rate : 192 Kbps
Channel(s) : 2 channels
Channel positions : Front: L R
Sampling rate : 48.0 KHz
Bit depth : 16 bits
Compression mode : Lossy
Stream size : 70.9 MiB (9%)
Default : Yes
Forced : No
Релиз от:
[Profile] [PM]
Display posts:    
Reply to topic

Current time is: 20-Oct 18:34

All times are UTC + 3



You cannot post new topics in this forum
You cannot reply to topics in this forum
You cannot edit your posts in this forum
You cannot delete your posts in this forum
You cannot vote in polls in this forum
You cannot attach files in this forum
You cannot download files in this forum