Большая игра [1-16 серии из 16] (2018) WEB-DLRip от Files-x

Reply to topic
 
Author Message

papa1951deda ®

Gender: Male

Longevity: 11 months 1 day

Posts: 339

Location: Казахстан

Post 29-Nov-2018 20:41

[Quote]

Большая игра Год выпуска: 2018
Жанр: Комедия, спорт
Выпущено: Кинокомпания «Goose Goose Films»­ по заказу телеканала СТС
Режиссёр: Байбулат Батуллин
В ролях: Дмитрий Колчин, Кирилл Дыцевич, Дмитрий Власкин, Антон Филипенко, Анна Котова, Сергей Лавыгин, Артём Ткаченко, Виктория Агалакова, Владислав Ветров, Константин Карасик, Максим Лагашкин, Александр Обласов, Максим Усанов, Олег Кассин, Ирина Темичева
О фильме: Остаётся год до чемпионата мира по футболу. После очередного проигрыша сборной фанаты решают выбрать нового тренера из числа своих. И теперь перед скромным поваром Димой стоит сложнейшая задача: не просто собрать команду лучших игроков и отработать победные схемы, но и впервые за всю историю российского футбола выйти в плей-офф чемпионата мира. И если помочь ему в этом могут легендарные футболисты, то палки в колёса готовы ставить все кому не лень, начиная от спортивных чиновников и заканчивая его подчинёнными, не воспринимающими самоучку всерьёз.
Качество: WEB-DLRip
Видео: XviD, ~ 1500 Кбит/с, 720х400, 25 кадр/с
Аудио: AC3, 2 ch, 192 Кбит/с
Продолжительность: 16 х ~ 00:26:00
Перевод: Не требуется
Субтитры: Нет

Скриншоты

MediaInfo

General
Complete name : D:\моё видио\Большая игра.2018.WEB-DLRip.Files-x\01.02.Большая игра.2018.WEB-DLRip.Files-x.avi
Format : AVI
Format/Info : Audio Video Interleave
File size : 626 MiB
Duration : 51mn 27s
Overall bit rate : 1 702 Kbps
Writing application : VirtualDubMod 1.5.10.3 | www.virtualdub-fr.org || (build 2550/release)
Writing library : VirtualDubMod build 2550/release
Video
ID : 0
Format : MPEG-4 Visual
Format profile : Advanced Simple@L5
Format settings, BVOP : 1
Format settings, QPel : No
Format settings, GMC : No warppoints
Format settings, Matrix : Custom
Codec ID : XVID
Codec ID/Hint : XviD
Duration : 51mn 27s
Bit rate : 1 500 Kbps
Width : 720 pixels
Height : 400 pixels
Display aspect ratio : 16:9
Frame rate : 25.000 fps
Color space : YUV
Chroma subsampling : 4:2:0
Bit depth : 8 bits
Scan type : Progressive
Compression mode : Lossy
Bits/(Pixel*Frame) : 0.208
Stream size : 552 MiB (88%)
Writing library : XviD 73
Audio
ID : 1
Format : AC-3
Format/Info : Audio Coding 3
Mode extension : CM (complete main)
Format settings, Endianness : Big
Codec ID : 2000
Duration : 51mn 27s
Bit rate mode : Constant
Bit rate : 192 Kbps
Channel(s) : 2 channels
Channel positions : Front: L R
Sampling rate : 48.0 KHz
Bit depth : 16 bits
Compression mode : Lossy
Stream size : 70.7 MiB (11%)
Alignment : Split accross interleaves
Interleave, duration : 40 ms (1.00 video frame)
Interleave, preload duration : 500 ms
Релиз от:
[Profile] [PM]
Display posts:    
Reply to topic

Current time is: 22-Oct 15:31

All times are UTC + 3



You cannot post new topics in this forum
You cannot reply to topics in this forum
You cannot edit your posts in this forum
You cannot delete your posts in this forum
You cannot vote in polls in this forum
You cannot attach files in this forum
You cannot download files in this forum