Большая игра [1-16 серии из 16] (2018) WEB-DL 720p от Files-x

Reply to topic
 
Author Message

papa1951deda ®

Gender: Male

Longevity: 6 months 29 days

Posts: 249

Location: Казахстан

Post 29-Nov-2018 20:51

[Quote]

Большая игра Год выпуска: 2018
Жанр: Комедия, спорт
Выпущено: Кинокомпания «Goose Goose Films»­ по заказу телеканала СТС
Режиссёр: Байбулат Батуллин
В ролях: Дмитрий Колчин, Кирилл Дыцевич, Дмитрий Власкин, Антон Филипенко, Анна Котова, Сергей Лавыгин, Артём Ткаченко, Виктория Агалакова, Владислав Ветров, Константин Карасик, Максим Лагашкин, Александр Обласов, Максим Усанов, Олег Кассин, Ирина Темичева
О фильме: Остаётся год до чемпионата мира по футболу. После очередного проигрыша сборной фанаты решают выбрать нового тренера из числа своих. И теперь перед скромным поваром Димой стоит сложнейшая задача: не просто собрать команду лучших игроков и отработать победные схемы, но и впервые за всю историю российского футбола выйти в плей-офф чемпионата мира. И если помочь ему в этом могут легендарные футболисты, то палки в колёса готовы ставить все кому не лень, начиная от спортивных чиновников и заканчивая его подчинёнными, не воспринимающими самоучку всерьёз.
Качество: WEB-DLRip 720p
Видео: MPEG-4 AVC, ~ 2565 Кбит/с, 1280x720, 25 кадр/с
Аудио: AC3, 2 ch, 192 Кбит/с
Продолжительность: 16 х ~ 00:26:00
Перевод: Не требуется
Субтитры: Нет

Скриншоты

MediaInfo

General
Unique ID : 191010810458892212652573737981238058352 (0x8FB3580D8794B9C6A5D50888B1081D70)
Complete name : D:\моё видио\Bolshaya.igra (2018) WEB-DL 720p.. Files-x\Bolshaya.igra.e01.2018.WEB-DL.720p.. Files-x.mkv
Format : Matroska
Format version : Version 2
File size : 507 MiB
Duration : 25mn 46s
Overall bit rate : 2 752 Kbps
Encoded date : UTC 2018-08-26 12:11:45
Writing application : mkvmerge v7.8.0 ('River Man') 32bit built on Apr 3 2015 12:11:22
Writing library : libebml v1.3.1 + libmatroska v1.4.2
Video
ID : 1
Format : AVC
Format/Info : Advanced Video Codec
Format profile : High@L4.0
Format settings, CABAC : Yes
Format settings, ReFrames : 4 frames
Codec ID : V_MPEG4/ISO/AVC
Duration : 25mn 46s
Bit rate : 2 569 Kbps
Width : 1 280 pixels
Height : 720 pixels
Display aspect ratio : 16:9
Frame rate mode : Constant
Frame rate : 25.000 fps
Color space : YUV
Chroma subsampling : 4:2:0
Bit depth : 8 bits
Scan type : Progressive
Bits/(Pixel*Frame) : 0.112
Stream size : 462 MiB (91%)
Writing library : x264 core 142
Encoding settings : cabac=1 / ref=3 / deblock=1:0:0 / analyse=0x3:0x113 / me=hex / subme=7 / psy=1 / psy_rd=1.00:0.00 / mixed_ref=1 / me_range=16 / chroma_me=1 / trellis=1 / 8x8dct=1 / cqm=0 / deadzone=21,11 / fast_pskip=1 / chroma_qp_offset=-2 / threads=108 / lookahead_threads=5 / sliced_threads=0 / nr=0 / decimate=1 / interlaced=0 / bluray_compat=0 / constrained_intra=0 / bframes=6 / b_pyramid=2 / b_adapt=1 / b_bias=0 / direct=1 / weightb=1 / open_gop=0 / weightp=2 / keyint=50 / keyint_min=26 / scenecut=0 / intra_refresh=0 / rc_lookahead=40 / rc=2pass / mbtree=1 / bitrate=2569 / ratetol=1.0 / qcomp=0.60 / qpmin=0 / qpmax=69 / qpstep=4 / cplxblur=20.0 / qblur=0.5 / vbv_maxrate=3854 / vbv_bufsize=10279 / nal_hrd=none / filler=0 / ip_ratio=1.40 / aq=1:1.00
Default : Yes
Forced : No
Audio
ID : 2
Format : AC-3
Format/Info : Audio Coding 3
Mode extension : CM (complete main)
Format settings, Endianness : Big
Codec ID : A_AC3
Duration : 25mn 46s
Bit rate mode : Constant
Bit rate : 192 Kbps
Channel(s) : 2 channels
Channel positions : Front: L R
Sampling rate : 48.0 KHz
Bit depth : 16 bits
Compression mode : Lossy
Stream size : 35.4 MiB (7%)
Default : Yes
Forced : No
Релиз от:
[Profile] [PM]
Display posts:    
Reply to topic

Current time is: 20-Jun 11:19

All times are UTC + 3



You cannot post new topics in this forum
You cannot reply to topics in this forum
You cannot edit your posts in this forum
You cannot delete your posts in this forum
You cannot vote in polls in this forum
You cannot attach files in this forum
You cannot download files in this forum