Господа полицейские [1-4 из 4] (2014) HDTVRip от Files-x

Reply to topic
 
Author Message

bond74 ®

Gender: Male

Longevity: 9 months 10 days

Posts: 584

Post 29-Nov-2018 20:47

[Quote]

Господа полицейские Год выпуска: 2014
Жанр: Детектив
Выпущено: Россия, Кинокомпания Форте-Фильм
Режиссер: Вячеслав Златопольский
В ролях: Илья Соболев, Иван Латушко, Валерия Бурдужа, Саид Багов, Юлия Такшина, Антон Ансимов, Андрей Багиров, Алёна Васильева, Сергей Карякин, Екатерина Преображенская, Артём Цуканов, Дарья Повереннова, Юлия Куварзина, Александр Занин (II), Глеб Иванов (III)
О фильме: Полицейские будни патрульно-постовой службы – это проверка документов, ежедневные летучки, а еще… погони, засады и перестрелки! День за днем господа полицейские охраняют жизнь и спокойствие мирных граждан небольшого провинциального города. У каждого из них свои мотивы для работы в полиции, свои мечты. Для кого-то это способ вырваться из провинции, для кого-то возможность продолжить династию, а кто-то делает карьеру. Но все они стоят на страже закона и порядка, всегда готовы прийти на помощь и сделать все зависящее, чтобы преступление не только было раскрыто, но и не повторилось вновь…

Качество: HDTVRip
Видео: XviD, ~ 1800 Кбит/с, 720х400, 25 кадр/с
Аудио: AC3, 2 ch, 192 Кбит/с
Продолжительность: 4 x ~ 00:44:00
Перевод: Не требуется
Субтитры: нет

Скриншоты

MediaInfo

General
Complete name : D:\Господа полицейские\01.Господа полицейские.avi
Format : AVI
Format/Info : Audio Video Interleave
File size : 630 MiB
Duration : 44 min 2 s
Overall bit rate : 2 001 kb/s
Writing application : VirtualDubMod 1.5.10.3 | www.virtualdub-fr.org || (build 2550/release)
Writing library : VirtualDubMod build 2550/release
Video
ID : 0
Format : MPEG-4 Visual
Format profile : Advanced Simple@L5
Format settings : BVOP1
Format settings, BVOP : 1
Format settings, QPel : No
Format settings, GMC : No warppoints
Format settings, Matrix : Default (MPEG)
Codec ID : XVID
Codec ID/Hint : XviD
Duration : 44 min 2 s
Bit rate : 1 799 kb/s
Width : 720 pixels
Height : 400 pixels
Display aspect ratio : 16:9
Frame rate : 25.000 FPS
Color space : YUV
Chroma subsampling : 4:2:0
Bit depth : 8 bits
Scan type : Progressive
Compression mode : Lossy
Bits/(Pixel*Frame) : 0.250
Stream size : 567 MiB (90%)
Writing library : XviD 73
Audio
ID : 1
Format : AC-3
Format/Info : Audio Coding 3
Codec ID : 2000
Duration : 44 min 2 s
Bit rate mode : Constant
Bit rate : 192 kb/s
Channel(s) : 2 channels
Channel positions : Front: L R
Sampling rate : 48.0 kHz
Frame rate : 31.250 FPS (1536 SPF)
Bit depth : 16 bits
Compression mode : Lossy
Stream size : 60.5 MiB (10%)
Alignment : Split accross interleaves
Interleave, duration : 40 ms (1.00 video frame)
Interleave, preload duratio : 500 ms
Service kind : Complete Main
Релиз от:
[Profile] [PM]
Display posts:    
Reply to topic

Current time is: 25-Aug 15:27

All times are UTC + 3



You cannot post new topics in this forum
You cannot reply to topics in this forum
You cannot edit your posts in this forum
You cannot delete your posts in this forum
You cannot vote in polls in this forum
You cannot attach files in this forum
You cannot download files in this forum