Господа полицейские [1-4 из 4] (2014) HDTV 1080i от Files-x

Reply to topic
 
Author Message

bond74 ®

Gender: Male

Longevity: 5 months 7 days

Posts: 309

Post 30-Nov-2018 09:54

[Quote]

Господа полицейские Год выпуска: 2014
Жанр: Детектив
Выпущено: Россия, Кинокомпания Форте-Фильм
Режиссер: Вячеслав Златопольский
В ролях: Илья Соболев, Иван Латушко, Валерия Бурдужа, Саид Багов, Юлия Такшина, Антон Ансимов, Андрей Багиров, Алёна Васильева, Сергей Карякин, Екатерина Преображенская, Артём Цуканов, Дарья Повереннова, Юлия Куварзина, Александр Занин (II), Глеб Иванов (III)
О фильме: Полицейские будни патрульно-постовой службы – это проверка документов, ежедневные летучки, а еще… погони, засады и перестрелки! День за днем господа полицейские охраняют жизнь и спокойствие мирных граждан небольшого провинциального города. У каждого из них свои мотивы для работы в полиции, свои мечты. Для кого-то это способ вырваться из провинции, для кого-то возможность продолжить династию, а кто-то делает карьеру. Но все они стоят на страже закона и порядка, всегда готовы прийти на помощь и сделать все зависящее, чтобы преступление не только было раскрыто, но и не повторилось вновь…

Качество: HDTV 1080i
Видео: MPEG-4 AVC, ~ 6346 Кбит/с, 1920x1080, 25 кадр/с
Аудио: Русский (MP2, 2 ch, 192 Кбит/с)
Продолжительность: 4 x ~ 00:44:00
Перевод: Не требуется
Субтитры: нет

Скриншоты

MediaInfo

General
General
ID : 1 (0x1)
Complete name : H:\Господа полицейские.2014. HDTV 1080i.Files-x\02.Господа полицейские.2014.HDTV 1080i. Files-x.ts
Format : MPEG-TS
File size : 2.12 GiB
Duration : 44mn 7s
Overall bit rate : 6 879 Kbps
Video
ID : 67 (0x43)
Menu ID : 1 (0x1)
Format : AVC
Format/Info : Advanced Video Codec
Format profile : High@L4.0
Format settings, CABAC : Yes
Format settings, ReFrames : 4 frames
Format settings, GOP : N=1
Codec ID : 27
Duration : 44mn 7s
Bit rate : 6 346 Kbps
Width : 1 920 pixels
Height : 1 080 pixels
Display aspect ratio : 16:9
Frame rate : 25.000 fps
Standard : Component
Color space : YUV
Chroma subsampling : 4:2:0
Bit depth : 8 bits
Scan type : Interlaced
Scan order : Top Field First
Bits/(Pixel*Frame) : 0.122
Stream size : 1.96 GiB (92%)
Color primaries : BT.709-5, BT.1361, IEC 61966-2-4, SMPTE RP177
Transfer characteristics : BT.709-5, BT.1361
Matrix coefficients : BT.709-5, BT.1361, IEC 61966-2-4 709, SMPTE RP177
Audio
ID : 68 (0x44)
Menu ID : 1 (0x1)
Format : MPEG Audio
Format version : Version 1
Format profile : Layer 2
Codec ID : 3
Duration : 44mn 7s
Bit rate mode : Constant
Bit rate : 192 Kbps
Channel(s) : 2 channels
Sampling rate : 48.0 KHz
Compression mode : Lossy
Delay relative to video : -120ms
Stream size : 60.6 MiB (3%)
Language : Russian
Релиз от:
[Profile] [PM]
Display posts:    
Reply to topic

Current time is: 22-Apr 18:21

All times are UTC + 3



You cannot post new topics in this forum
You cannot reply to topics in this forum
You cannot edit your posts in this forum
You cannot delete your posts in this forum
You cannot vote in polls in this forum
You cannot attach files in this forum
You cannot download files in this forum