Мой ужин с Эрве / My Dinner with Hervé (2018) HDTVRip

Reply to topic
 
Author Message

Monk ®

Gender: Male

Longevity: 9 months 6 days

Posts: 7909

Location: Казань

Post 30-Nov-2018 15:28

[Quote]

Мой ужин с Эрве / My Dinner with Hervé Год выпуска: 2018
Жанр: Драма, биография
Выпущено: США, Daredevil Films, Estuary Films, Film Rites
Режиссер: Саша Джерваси
В ролях: Джейми Дорнан, Питер Динклэйдж, Энди Гарсиа, Уна Чаплин, Мирей Инос, Хелена Мэттссон, Эшли Брюэр, Харриет Уолтер, Уоллес Лэнгэм, Дэниэл Мейс
О фильме: Популярный журналист Джерваси смог взять интервью у звезды телевидения Эрве Вильшез. Это уникальное событие легло в основу биографической ленты "Мой ужин с Эрве". Главный герой картины родился в Париже, где воспитывался родной мамой с отчимом. Он рано столкнулся с заболеванием эндокринной системы, что привело к тому, что рост Вильшеза затормозился. Он едва достиг планки в сто двадцать сантиметров. Когда парень повзрослел, он перебрался в Америку. Здесь он занимался фотографией, а позже был приглашен на роли второго плана. В 1993 году, после длительной алкогольной депрессии, актер покончил жизнь самоубийством.

Качество: HDTVRip
Видео: XviD, 1655 Кбит/с, 720x400, 25 кадр/с
Аудио: Pусский (AC3, 6 ch, 384 Кбит/c)
Продолжительность: 01:41:22
Перевод: Профессиональный многоголосый [Amedia]

Скриншоты



MediaInfo

Общее
Полное имя : My.Dinner.with.Herve.2018.HDTVRip.avi
Формат : AVI
Формат/Информация : Audio Video Interleave
Размер файла : 1,45 Гбайт
Продолжительность : 1 ч. 41 м.
Общий поток : 2049 Кбит/сек
Программа кодирования : VirtualDubMod 1.5.10.2 (build 2540/release)
Библиотека кодирования : VirtualDubMod build 2540/release
Видео
Идентификатор : 0
Формат : MPEG-4 Visual
Профиль формата : Advanced Simple@L5
Параметр BVOP формата : 1
Параметр QPel формата : Нет
Параметр GMC формата : Без точки перехода
Параметр матрицы формата : Выборочная
Идентификатор кодека : XVID
Идентификатор кодека/Подсказка : XviD
Продолжительность : 1 ч. 41 м.
Битрейт : 1655 Кбит/сек
Ширина : 720 пикселей
Высота : 400 пикселей
Соотношение сторон : 16:9
Частота кадров : 25,000 кадров/сек
Цветовое пространство : YUV
Субдискретизация насыщенности : 4:2:0
Битовая глубина : 8 бит
Тип развёртки : Прогрессивная
Метод сжатия : С потерями
Бит/(Пиксели*Кадры) : 0.230
Размер потока : 1,17 Гбайт (81%)
Библиотека кодирования : XviD 65
Аудио
Идентификатор : 1
Формат : AC-3
Формат/Информация : Audio Coding 3
Параметр Endianness формата : Big
Идентификатор кодека : 2000
Продолжительность : 1 ч. 41 м.
Вид битрейта : Постоянный
Битрейт : 384 Кбит/сек
Каналы : 6 каналов
Расположение каналов : Front: L C R, Side: L R, LFE
Частота : 48,0 КГц
Частота кадров : 31,250 кадров/сек (1536 spf)
Битовая глубина : 16 бит
Метод сжатия : С потерями
Размер потока : 278 Мбайт (19%)
Выравнивание : Разделение по промежуткам
Продолжительность промежутка : 40 мс. (1,00 видеокадр)
Время предзагрузки промежутка : 500 мс.
ServiceKind/String : Complete Main
[Profile] [PM]
Display posts:    
Reply to topic

Current time is: 21-Aug 11:44

All times are UTC + 3



You cannot post new topics in this forum
You cannot reply to topics in this forum
You cannot edit your posts in this forum
You cannot delete your posts in this forum
You cannot vote in polls in this forum
You cannot attach files in this forum
You cannot download files in this forum