Мой ужин с Эрве / My Dinner with Hervé (2018) HDTV 1080i

Reply to topic
 
Author Message

Monk ®

Gender: Male

Longevity: 9 months 3 days

Posts: 7868

Location: Казань

Post 30-Nov-2018 15:39

[Quote]

Мой ужин с Эрве / My Dinner with Hervé Год выпуска: 2018
Жанр: Драма, биография
Выпущено: США, Daredevil Films, Estuary Films, Film Rites
Режиссер: Саша Джерваси
В ролях: Джейми Дорнан, Питер Динклэйдж, Энди Гарсиа, Уна Чаплин, Мирей Инос, Хелена Мэттссон, Эшли Брюэр, Харриет Уолтер, Уоллес Лэнгэм, Дэниэл Мейс
О фильме: Популярный журналист Джерваси смог взять интервью у звезды телевидения Эрве Вильшез. Это уникальное событие легло в основу биографической ленты "Мой ужин с Эрве". Главный герой картины родился в Париже, где воспитывался родной мамой с отчимом. Он рано столкнулся с заболеванием эндокринной системы, что привело к тому, что рост Вильшеза затормозился. Он едва достиг планки в сто двадцать сантиметров. Когда парень повзрослел, он перебрался в Америку. Здесь он занимался фотографией, а позже был приглашен на роли второго плана. В 1993 году, после длительной алкогольной депрессии, актер покончил жизнь самоубийством.

Качество: HDTV 1080i
Видео: MPEG-4 AVC, 6655 Кбит/с, 1920x1080
Аудио: Русский (АС3, 6 ch, 384 Кбит/с), английский (МР2, 2 ch, 192 Кбит/с)
Продолжительность: 01:41:00
Перевод: Профессиональный многоголосый [Amedia]
Субтитры: Русские

Скриншоты

MediaInfo

General
Unique ID : 300722223665113522151120600553890560197 (0xE23CFE5949E132CCD7268A1CBD98B8C5)
Complete name : My.Dinner.with.Herve.2018.1080i.HDTV.mkv
Format : Matroska
Format version : Version 4 / Version 2
File size : 5.12 GiB
Duration : 1 h 41 min
Overall bit rate : 7 233 kb/s
Encoded date : UTC 2018-10-22 20:01:13
Writing application : mkvmerge v28.0.0 ('Voice In My Head') 64-bit
Writing library : libebml v1.3.6 + libmatroska v1.4.9
Video
ID : 1
Format : AVC
Format/Info : Advanced Video Codec
Format profile : High@L4
Format settings : CABAC / 4 Ref Frames
Format settings, CABAC : Yes
Format settings, ReFrames : 4 frames
Codec ID : V_MPEG4/ISO/AVC
Duration : 1 h 41 min
Bit rate : 6 655 kb/s
Width : 1 920 pixels
Height : 1 080 pixels
Display aspect ratio : 16:9
Frame rate mode : Constant
Frame rate : 25.000 FPS
Standard : Component
Color space : YUV
Chroma subsampling : 4:2:0
Bit depth : 8 bits
Scan type : MBAFF
Bits/(Pixel*Frame) : 0.128
Stream size : 4.71 GiB (92%)
Default : Yes
Forced : No
Color range : Limited
Color primaries : BT.709
Transfer characteristics : BT.709
Matrix coefficients : BT.709
Audio #1
ID : 2
Format : AC-3
Format/Info : Audio Coding 3
Codec ID : A_AC3
Duration : 1 h 41 min
Bit rate mode : Constant
Bit rate : 384 kb/s
Channel(s) : 6 channels
Channel positions : Front: L C R, Side: L R, LFE
Sampling rate : 48.0 kHz
Frame rate : 31.250 FPS (1536 SPF)
Bit depth : 16 bits
Compression mode : Lossy
Delay relative to video : -24 ms
Stream size : 278 MiB (5%)
Language : Russian
Service kind : Complete Main
Default : Yes
Forced : No
Audio #2
ID : 3
Format : MPEG Audio
Format version : Version 1
Format profile : Layer 2
Codec ID : A_MPEG/L2
Codec ID/Hint : MP2
Duration : 1 h 41 min
Bit rate mode : Constant
Bit rate : 192 kb/s
Channel(s) : 2 channels
Sampling rate : 48.0 kHz
Frame rate : 41.667 FPS (1152 SPF)
Compression mode : Lossy
Delay relative to video : -11 ms
Stream size : 139 MiB (3%)
Language : English
Default : No
Forced : No
Text
ID : 4
Format : UTF-8
Codec ID : S_TEXT/UTF8
Codec ID/Info : UTF-8 Plain Text
Duration : 1 h 34 min
Bit rate : 87 b/s
Count of elements : 1177
Stream size : 60.2 KiB (0%)
Language : Russian
Default : Yes
Forced : No
[Profile] [PM]
Display posts:    
Reply to topic

Current time is: 17-Aug 21:22

All times are UTC + 3



You cannot post new topics in this forum
You cannot reply to topics in this forum
You cannot edit your posts in this forum
You cannot delete your posts in this forum
You cannot vote in polls in this forum
You cannot attach files in this forum
You cannot download files in this forum