Колдовское озеро [1-2 серии из 2] (2018) WEB-DLRip от GeneralFilm

Reply to topic
 
Author Message

vsobbol ®

Gender: Male

Longevity: 5 months 7 days

Posts: 162

Location: Донецк

Post 30-Nov-2018 16:31

[Quote]

Колдовское озеро
Год выпуска: 2018
Жанр: детектив
Выпущено: Россия, Марс Медиа
Режиссер: Владимир Янковский
В ролях: Анна Банщикова, Юрий Батурин, Сергей Чекерес, Андрей Карако, Лариса Маршалова, Дмитрий Пустильник, Оксана Лесная, Виктор Васильев (II), Станислав Савостин
О фильме: В 17 лет Вика упала в заколдованное озеро, и теперь по местному поверью всю жизнь будет несчастна в любви. Она поставила крест на личной жизни и посвятила себя работе в мэрии, ведь проблем у родного города хватает. К власти рвется беспринципный богач Kрымов, в городе появляется загадочный француз Беранже, а тут еще и Викиного шефа убивают у нее на глазах... Искать убийц мэра приезжает следователь Сергей Леонтьев – Викин одноклассник и первая любовь. Вместе они пытаются распутать это странное дело, в котором тесно переплелись политика, мистика и жажда наживы...

Качество: WEB-DLRip
Видео: XviD build 73, 720x400 (16:9), 25.000 fps, ~ 1450 Kbps (~ 0.200 bit/pixel)
Аудио: 48.0 kHz, AC3, 2/0 ch, 192 kbps
Продолжительность: 2 x ~ 00:47:00
Перевод: Не требуется
Cубтитры: нет

Скриншоты

MediaInfo

General
Complete name : D:\Razdachi\Koldovskoe.Ozero.2018.XviD.WEB-DLRip.GeneralFilm\Koldovskoe.Ozero.e01.avi
Format : AVI
Format/Info : Audio Video Interleave
File size : 557 MiB
Duration : 46 min 42 s
Overall bit rate : 1 668 kb/s
Writing application : VirtualDubMod 1.5.10.3 | www.virtualdub-fr.org || (build 2550/release)
Writing library : VirtualDubMod build 2550/release
Video
ID : 0
Format : MPEG-4 Visual
Format profile : Advanced Simple@L5
Format settings, BVOP : 1
Format settings, QPel : No
Format settings, GMC : No warppoints
Format settings, Matrix : Custom
Codec ID : XVID
Codec ID/Hint : XviD
Duration : 46 min 42 s
Bit rate : 1 466 kb/s
Width : 720 pixels
Height : 400 pixels
Display aspect ratio : 16:9
Frame rate : 25.000 FPS
Color space : YUV
Chroma subsampling : 4:2:0
Bit depth : 8 bits
Scan type : Progressive
Compression mode : Lossy
Bits/(Pixel*Frame) : 0.204
Stream size : 490 MiB (88%)
Writing library : XviD 73
Audio
ID : 1
Format : AC-3
Format/Info : Audio Coding 3
Format settings, Endianness : Big
Codec ID : 2000
Duration : 46 min 42 s
Bit rate mode : Constant
Bit rate : 192 kb/s
Channel(s) : 2 channels
Channel positions : Front: L R
Sampling rate : 48.0 kHz
Frame rate : 31.250 FPS (1536 SPF)
Bit depth : 16 bits
Compression mode : Lossy
Stream size : 64.1 MiB (12%)
Alignment : Split accross interleaves
Interleave, duration : 40 ms (1.00 video frame)
Interleave, preload duratio : 500 ms
Service kind : Complete Main
Релиз от:
[Profile] [PM]
Display posts:    
Reply to topic

Current time is: 23-Apr 09:58

All times are UTC + 3



You cannot post new topics in this forum
You cannot reply to topics in this forum
You cannot edit your posts in this forum
You cannot delete your posts in this forum
You cannot vote in polls in this forum
You cannot attach files in this forum
You cannot download files in this forum