Колдовское озеро [1-2 фильм из 2] (2018) WEB-DLRip-AVC от Files-x

Reply to topic
 
Author Message

Серый1779 ®

Gender: Male

Longevity: 5 months 10 days

Posts: 391

Location: Украина

Post 30-Nov-2018 17:26

[Quote]

Колдовское озеро
Год выпуска: 2018
Жанр: Детектив, мелодрама
Выпущено: Россия, Марс Медиа
Режиссер: Владимир Янковский
В ролях: Анна Банщикова, Юрий Батурин, Сергей Чекерес, Андрей Карако, Лариса Маршалова, Дмитрий Пустильник, Оксана Лесная, Виктор Васильев (II), Станислав Савостин
О фильме:В 17 лет Вика упала в заколдованное озеро, и теперь по местному поверью всю жизнь будет несчастна в любви. Она поставила крест на личной жизни и посвятила себя работе в мэрии, ведь проблем у родного города хватает. К власти рвется беспринципный богач Крымов, в городе появляется загадочный француз Беранже, а тут еще и Викиного шефа убивают у нее на глазах... Искать убийц мэра приезжает следователь Сергей Леонтьев – Викин одноклассник и первая любовь. Вместе они пытаются распутать это странное дело, в котором тесно переплелись политика, мистика и жажда наживы...
Качество: WEB-DLRip-AVC
Видео: MPEG-4 AVC, ~ 1600 Кбит/с, 1024x576, 25 кадр/с
Аудио: AC3, 2 ch, 192 Кбит/с
Продолжительность: 2 x ~ 00:47:00
Перевод: Не требуется
Субтитры: нет

Скриншоты


MediaInfo

General
Unique ID : 192855296283790534559791510378482013076 (0x91169439A6497F0384B7096B14909394)
Complete name : F:\Koldovskoe ozero.(2018).WEB-DLRip.(AVC).Files-x\01.Koldovskoe.ozero.(2018).WEB-DLRip.(AVC).by.Серый1779.Files-x.mkv
Format : Matroska
Format version : Version 2
File size : 599 MiB
Duration : 46 min 42 s
Overall bit rate : 1 793 kb/s
Encoded date : UTC 2018-11-30 05:53:23
Writing application : mkvmerge v7.8.0 ('River Man') 32bit built on Apr 3 2015 12:11:22
Writing library : libebml v1.3.1 + libmatroska v1.4.2
Video
ID : 1
Format : AVC
Format/Info : Advanced Video Codec
Format profile : High@L4.1
Format settings : CABAC / 9 Ref Frames
Format settings, CABAC : Yes
Format settings, RefFrames : 9 frames
Codec ID : V_MPEG4/ISO/AVC
Duration : 46 min 42 s
Bit rate : 1 600 kb/s
Width : 1 024 pixels
Height : 576 pixels
Display aspect ratio : 16:9
Frame rate mode : Constant
Frame rate : 25.000 FPS
Color space : YUV
Chroma subsampling : 4:2:0
Bit depth : 8 bits
Scan type : Progressive
Bits/(Pixel*Frame) : 0.109
Stream size : 523 MiB (87%)
Writing library : x264 core 146 r2538 121396c
Encoding settings : cabac=1 / ref=9 / deblock=1:-2:-1 / analyse=0x3:0x133 / me=umh / subme=9 / psy=1 / psy_rd=1.00:0.15 / mixed_ref=1 / me_range=32 / chroma_me=1 / trellis=2 / 8x8dct=1 / cqm=0 / deadzone=21,11 / fast_pskip=0 / chroma_qp_offset=-3 / threads=18 / lookahead_threads=3 / sliced_threads=0 / nr=0 / decimate=1 / interlaced=0 / bluray_compat=0 / constrained_intra=0 / bframes=9 / b_pyramid=2 / b_adapt=2 / b_bias=0 / direct=1 / weightb=1 / open_gop=0 / weightp=2 / keyint=250 / keyint_min=25 / scenecut=40 / intra_refresh=0 / rc=2pass / mbtree=0 / bitrate=1600 / ratetol=1.0 / qcomp=0.60 / qpmin=0 / qpmax=69 / qpstep=4 / cplxblur=20.0 / qblur=0.5 / ip_ratio=1.40 / pb_ratio=1.30 / aq=2:1.00
Default : Yes
Forced : No
Color range : Limited
Color primaries : BT.709
Transfer characteristics : BT.709
Matrix coefficients : BT.709
Audio
ID : 2
Format : AC-3
Format/Info : Audio Coding 3
Format settings, Endianness : Big
Codec ID : A_AC3
Duration : 46 min 42 s
Bit rate mode : Constant
Bit rate : 192 kb/s
Channel(s) : 2 channels
Channel positions : Front: L R
Sampling rate : 48.0 kHz
Frame rate : 31.250 FPS (1536 SPF)
Bit depth : 16 bits
Compression mode : Lossy
Stream size : 64.1 MiB (11%)
Service kind : Complete Main
Default : Yes
Forced : No
Релиз от:
[Profile] [PM]
Display posts:    
Reply to topic

Current time is: 23-Apr 09:55

All times are UTC + 3



You cannot post new topics in this forum
You cannot reply to topics in this forum
You cannot edit your posts in this forum
You cannot delete your posts in this forum
You cannot vote in polls in this forum
You cannot attach files in this forum
You cannot download files in this forum