Ворона [1-12 серии из 12] (2018) WEBRip от Files-x

Reply to topic
 
Author Message

bond74 ®

Gender: Male

Longevity: 5 months 8 days

Posts: 311

Post 30-Nov-2018 17:50

[Quote]

Ворона Год выпуска: 2018
Жанр: Детектив, криминал
Выпущено: Россия, Мармот-фильм
Режиссер: Ольга Ангелова, Евгений Сосницкий
В ролях: Елизавета Боярская, Анатолий Белый, Екатерина Попова, Антон Сычев, Дианна Дезмари, Елена Мартыненко, Владимир Селезнев, Юрий Ковалев, Андрей Павлютин, Андрей Панков
О фильме: В одном большом доме живут несколько поколений одной семьи. Каждый из них готов на всё ради наживы. Глава семьи очень богат, но его здоровье оставляет желать лучшего. Никто из родственников не хочет помогать старику, в итоге все пришли к единому мнению - нанять для него сиделку. Девушка, которую наняли в качестве сиделки, быстро подружилась со стариком. Родственники продолжают делать вид, что беспокоятся за здоровье главы семейства. Его супруга давно изменяет ему с соседом. Детям наплевать на закон и порядок. Неожиданно старик преподносит всем сюрприз.

Качество: WEBRip
Видео: XviD, ~ 1500 Кбит/с, 720x352, 25 кадр/с
Аудио: AC3, 2 ch, 192 Кбит/с
Продолжительность: 12 х ~ 00:50:00
Перевод: Не требуется
Субтитры: нет

Скриншоты

MediaInfo

General
General
Complete name : H:\Ворона. (2018)\01. Ворона.WEB-DLRip.Files-x..avi
Format : AVI
Format/Info : Audio Video Interleave
File size : 588 MiB
Duration : 48mn 20s
Overall bit rate : 1 702 Kbps
Writing application : VirtualDubMod 1.5.10.3 | www.virtualdub-fr.org || (build 2550/release)
Writing library : VirtualDubMod build 2550/release
Video
ID : 0
Format : MPEG-4 Visual
Format profile : Advanced Simple@L5
Format settings, BVOP : 1
Format settings, QPel : No
Format settings, GMC : No warppoints
Format settings, Matrix : Custom
Codec ID : XVID
Codec ID/Hint : XviD
Duration : 48mn 20s
Bit rate : 1 500 Kbps
Width : 720 pixels
Height : 352 pixels
Display aspect ratio : 2.045
Frame rate : 25.000 fps
Color space : YUV
Chroma subsampling : 4:2:0
Bit depth : 8 bits
Scan type : Progressive
Compression mode : Lossy
Bits/(Pixel*Frame) : 0.237
Stream size : 518 MiB (88%)
Writing library : XviD 73
Audio
ID : 1
Format : AC-3
Format/Info : Audio Coding 3
Mode extension : CM (complete main)
Codec ID : 2000
Duration : 48mn 20s
Bit rate mode : Constant
Bit rate : 192 Kbps
Channel(s) : 2 channels
Channel positions : Front: L R
Sampling rate : 48.0 KHz
Bit depth : 16 bits
Compression mode : Lossy
Stream size : 66.4 MiB (11%)
Alignment : Split accross interleaves
Interleave, duration : 40 ms (1.00 video frame)
Interleave, preload duration : 500 ms
Релиз от:
[Profile] [PM]
Display posts:    
Reply to topic

Current time is: 23-Apr 09:59

All times are UTC + 3



You cannot post new topics in this forum
You cannot reply to topics in this forum
You cannot edit your posts in this forum
You cannot delete your posts in this forum
You cannot vote in polls in this forum
You cannot attach files in this forum
You cannot download files in this forum