Ворона [1-12 серия из 12] (2018) WEBRip-AVC от Files-x

Reply to topic
 
Author Message

Серый1779 ®

Gender: Male

Longevity: 7 months 5 days

Posts: 471

Location: Украина

Post 16-Nov-2018 02:39

[Quote]

Ворона
Год выпуска: 2018
Жанр: Детектив, криминал, триллер
Выпущено: Россия, Мармот-фильм
Режиссер: Ольга Ангелова, Евгений Сосницкий
В ролях: Елизавета Боярская, Анатолий Белый, Марина Игнатова, Виталий Коваленко, Артём Карасёв, Сергей Колос, Василий Щипицын, Антон Сычёв, Диана Дезмари, Елена Мартыненко, Владимир Селезнёв (II), Юрий Ковалёв, Владимир Колганов, Дмитрий Сутырин, Владимир Артёмов, Алиса Горшкова, Светлана Бакулина
О фильме: Анна Воронцова, или, как прозвали ее коллеги в следственном комитете, Ворона, в течение трёх недель отказывается возбуждать дело о пропаже известного богемного фотографа. По роковому стечению обстоятельств, этот человек погибает. Теперь, терзаемая муками совести, героиня ставит своей задачей во чтобы то ни стало разобраться в этом деле.
Качество: WEBRip-AVC
Видео: MPEG-4 AVC, ~ 2000 Кбит/с, 1024x512, 25 кадр/с
Аудио: AC3, 2 ch, 192 Кбит/с
Продолжительность: 12 x ~ 00:50:00
Перевод: Не требуется
Субтитры: нет

Скриншоты


MediaInfo

General
Unique ID : 248618944403794734128183029537350577719 (0xBB0A4458997A0F5F82FC7DE38FEF6E37)
Complete name : E:\Vorona.(2018).WEB-DLRip.(AVC).Files-x\04.Ворона.(2018).WEB-DLRip.(AVC).by.Серый1779.Files-x.mkv
Format : Matroska
Format version : Version 2
File size : 751 MiB
Duration : 47 min
Overall bit rate : 2 193 kb/s
Encoded date : UTC 2018-10-31 02:22:49
Writing application : mkvmerge v7.8.0 ('River Man') 32bit built on Apr 3 2015 12:11:22
Writing library : libebml v1.3.1 + libmatroska v1.4.2
Video
ID : 1
Format : AVC
Format/Info : Advanced Video Codec
Format profile : High@L4.1
Format settings, CABAC : Yes
Format settings, ReFrames : 9 frames
Codec ID : V_MPEG4/ISO/AVC
Duration : 47 min
Bit rate : 2 000 kb/s
Width : 1 024 pixels
Height : 512 pixels
Display aspect ratio : 2.000
Frame rate mode : Constant
Frame rate : 25.000 FPS
Color space : YUV
Chroma subsampling : 4:2:0
Bit depth : 8 bits
Scan type : Progressive
Bits/(Pixel*Frame) : 0.153
Stream size : 670 MiB (89%)
Writing library : x264 core 146 r2538 121396c
Encoding settings : cabac=1 / ref=9 / deblock=1:-2:-1 / analyse=0x3:0x133 / me=umh / subme=9 / psy=1 / psy_rd=1.00:0.15 / mixed_ref=1 / me_range=32 / chroma_me=1 / trellis=2 / 8x8dct=1 / cqm=0 / deadzone=21,11 / fast_pskip=0 / chroma_qp_offset=-3 / threads=18 / lookahead_threads=3 / sliced_threads=0 / nr=0 / decimate=1 / interlaced=0 / bluray_compat=0 / constrained_intra=0 / bframes=9 / b_pyramid=2 / b_adapt=2 / b_bias=0 / direct=1 / weightb=1 / open_gop=0 / weightp=2 / keyint=250 / keyint_min=25 / scenecut=40 / intra_refresh=0 / rc=2pass / mbtree=0 / bitrate=2000 / ratetol=1.0 / qcomp=0.60 / qpmin=0 / qpmax=69 / qpstep=4 / cplxblur=20.0 / qblur=0.5 / ip_ratio=1.40 / pb_ratio=1.30 / aq=2:1.00
Default : Yes
Forced : No
Color range : Limited
Color primaries : BT.709
Transfer characteristics : BT.709
Matrix coefficients : BT.709
Audio
ID : 2
Format : AC-3
Format/Info : Audio Coding 3
Mode extension : CM (complete main)
Format settings, Endianness : Big
Codec ID : A_AC3
Duration : 47 min
Bit rate mode : Constant
Bit rate : 192 kb/s
Channel(s) : 2 channels
Channel positions : Front: L R
Sampling rate : 48.0 kHz
Frame rate : 31.250 FPS (1536 spf)
Compression mode : Lossy
Stream size : 65.7 MiB (9%)
Default : Yes
Forced : No
Релиз от:


Last edited by Серый1779 on 2018-11-22 16:45; edited 2 times in total
[Profile] [PM]
Display posts:    
Reply to topic

Current time is: 18-Jun 08:53

All times are UTC + 3



You cannot post new topics in this forum
You cannot reply to topics in this forum
You cannot edit your posts in this forum
You cannot delete your posts in this forum
You cannot vote in polls in this forum
You cannot attach files in this forum
You cannot download files in this forum