Новый человек [1-17 серии из 17] (2018) WEB-DL 720p от Files-x

Reply to topic
 
Author Message

bond74 ®

Gender: Male

Longevity: 9 months 10 days

Posts: 584

Post 30-Nov-2018 23:23

[Quote]

Новый человек Год выпуска: 2018
Жанр: Мелодрама
Выпущено: Россия, Мармот-фильм
Режиссер: Артем Насыбулин
В ролях: Владимир Епифанцев, Максим Виторган, Татьяна Арнтгольц, Виталий Егоров, Олег Масленников-Войтов, Елена Бирюкова, Тимур Еремеев, Анастасия Пучкина, Валентина Ляпина, Виктория Полторак, Александра Скачкова
О фильме: Саша - самовлюбленный сорокалетний спортсмен. Звезда хоккея, который из-за собственного характера в одночасье теряет все: деньги, славу, уважение. Более того, узнает, что мать его детей уходит к его лучшему другу. Но даже такие сокрушительные обстоятельства не могут сломить волю Саши к победе. Однако теперь он меняет тактику. Чтобы вернуть привычную жизнь, решает на время притвориться чутким, добрым и отзывчивым. Становится последователем и официальным лицом таинственного движения «Новый человек». Поначалу поведение Саши – притворство, дурной спектакль, который легко раскрывают окружающие. Но чем глубже Саша вживается в роль «нового человека», тем более непредсказуемой оказывается его жизнь.

Качество: WEB-DL 720p
Видео: MPEG-4 AVC, ~ 2569 Кбит/с, 1280x720, 25 кадр/с
Аудио: AC3, 2 ch, 192 Кбит/с
Продолжительность: 17 x ~ 00:25:00
Перевод: Не требуется
Субтитры: нет

Скриншоты

MediaInfo

General
Unique ID : 179921013212773509430150342334219570552 (0x875B86D59EF76099B51353C3C4F44D78)
Complete name : H:\Novyi.chelovek.2018.WEB-DL.720p.Files-x\01. Novyi.chelovek.e.2018.WEB-DL.720p. Files-x.mkv
Format : Matroska
File size : 502 MiB
Duration : 25mn 26s
Overall bit rate : 2 757 Kbps
Encoded date : UTC 2018-07-23 11:15:46
Writing application : mkvmerge v7.8.0 ('River Man') 32bit built on Apr 3 2015 12:11:22
Writing library : libebml v1.3.1 + libmatroska v1.4.2
Video
ID : 1
Format : AVC
Format/Info : Advanced Video Codec
Format profile : High@L4.0
Format settings, CABAC : Yes
Format settings, ReFrames : 4 frames
Format settings, GOP : M=1, N=50
Codec ID : V_MPEG4/ISO/AVC
Duration : 25mn 26s
Bit rate : 2 569 Kbps
Width : 1 280 pixels
Height : 720 pixels
Display aspect ratio : 16:9
Frame rate mode : Variable
Frame rate : 25.000 fps
Color space : YUV
Chroma subsampling : 4:2:0
Bit depth : 8 bits
Scan type : Progressive
Bits/(Pixel*Frame) : 0.112
Stream size : 457 MiB (91%)
Writing library : x264 core 142
Encoding settings : cabac=1 / ref=3 / deblock=1:0:0 / analyse=0x3:0x113 / me=hex / subme=7 / psy=1 / psy_rd=1.00:0.00 / mixed_ref=1 / me_range=16 / chroma_me=1 / trellis=1 / 8x8dct=1 / cqm=0 / deadzone=21,11 / fast_pskip=1 / chroma_qp_offset=-2 / threads=36 / lookahead_threads=5 / sliced_threads=0 / nr=0 / decimate=1 / interlaced=0 / bluray_compat=0 / constrained_intra=0 / bframes=6 / b_pyramid=2 / b_adapt=1 / b_bias=0 / direct=1 / weightb=1 / open_gop=0 / weightp=2 / keyint=50 / keyint_min=26 / scenecut=0 / intra_refresh=0 / rc_lookahead=40 / rc=2pass / mbtree=1 / bitrate=2569 / ratetol=1.0 / qcomp=0.60 / qpmin=0 / qpmax=69 / qpstep=4 / cplxblur=20.0 / qblur=0.5 / vbv_maxrate=3854 / vbv_bufsize=10279 / nal_hrd=none / filler=0 / ip_ratio=1.40 / aq=1:1.00
Audio
ID : 2
Format : AC-3
Format/Info : Audio Coding 3
Mode extension : CM (complete main)
Codec ID : A_AC3
Duration : 25mn 26s
Bit rate mode : Constant
Bit rate : 192 Kbps
Channel(s) : 2 channels
Channel positions : Front: L R
Sampling rate : 48.0 KHz
Bit depth : 16 bits
Compression mode : Lossy
Stream size : 34.9 MiB (7%)
Релиз от:
[Profile] [PM]
Display posts:    
Reply to topic

Current time is: 25-Aug 15:24

All times are UTC + 3



You cannot post new topics in this forum
You cannot reply to topics in this forum
You cannot edit your posts in this forum
You cannot delete your posts in this forum
You cannot vote in polls in this forum
You cannot attach files in this forum
You cannot download files in this forum