Новый человек [1-17 серии из 17] (2018) WEB-DLRip от Files-x

Reply to topic
 
Author Message

bond74 ®

Gender: Male

Longevity: 9 months 3 days

Posts: 576

Post 01-Dec-2018 00:24

[Quote]

Новый человек Год выпуска: 2018
Жанр: Мелодрама
Выпущено: Россия, Мармот-фильм
Режиссер: Артем Насыбулин
В ролях: Владимир Епифанцев, Максим Виторган, Татьяна Арнтгольц, Виталий Егоров, Олег Масленников-Войтов, Елена Бирюкова, Тимур Еремеев, Анастасия Пучкина, Валентина Ляпина, Виктория Полторак, Александра Скачкова
О фильме: Саша - самовлюбленный сорокалетний спортсмен. Звезда хоккея, который из-за собственного характера в одночасье теряет все: деньги, славу, уважение. Более того, узнает, что мать его детей уходит к его лучшему другу. Но даже такие сокрушительные обстоятельства не могут сломить волю Саши к победе. Однако теперь он меняет тактику. Чтобы вернуть привычную жизнь, решает на время притвориться чутким, добрым и отзывчивым. Становится последователем и официальным лицом таинственного движения «Новый человек». Поначалу поведение Саши – притворство, дурной спектакль, который легко раскрывают окружающие. Но чем глубже Саша вживается в роль «нового человека», тем более непредсказуемой оказывается его жизнь.

Качество: WEB-DLRip
Видео: XviD, ~ 1500 Кбит/с, 720х400, 25 кадр/с
Аудио: AC3, 2 ch, 192 Кбит/с
Продолжительность: 17 x ~ 00:25:00
Перевод: Не требуется
Субтитры: нет

Скриншоты

MediaInfo

General
Complete name : H:\Новый человек.2018.WEB-DLRip.Files-x\01.Новый человек.2018.WEB-DLRip.Files-x.avi
Format : AVI
Format/Info : Audio Video Interleave
File size : 308 MiB
Duration : 25mn 22s
Overall bit rate : 1 700 Kbps
Writing application : VirtualDubMod 1.5.10.3 | www.virtualdub-fr.org || (build 2550/release)
Writing library : VirtualDubMod build 2550/release
Video
ID : 0
Format : MPEG-4 Visual
Format profile : Advanced Simple@L5
Format settings, BVOP : 1
Format settings, QPel : No
Format settings, GMC : No warppoints
Format settings, Matrix : Custom
Codec ID : XVID
Codec ID/Hint : XviD
Duration : 25mn 22s
Bit rate : 1 498 Kbps
Width : 720 pixels
Height : 400 pixels
Display aspect ratio : 16:9
Frame rate : 25.000 fps
Color space : YUV
Chroma subsampling : 4:2:0
Bit depth : 8 bits
Scan type : Progressive
Compression mode : Lossy
Bits/(Pixel*Frame) : 0.208
Stream size : 272 MiB (88%)
Writing library : XviD 73
Audio
ID : 1
Format : AC-3
Format/Info : Audio Coding 3
Mode extension : CM (complete main)
Codec ID : 2000
Duration : 25mn 22s
Bit rate mode : Constant
Bit rate : 192 Kbps
Channel(s) : 2 channels
Channel positions : Front: L R
Sampling rate : 48.0 KHz
Bit depth : 16 bits
Compression mode : Lossy
Stream size : 34.8 MiB (11%)
Alignment : Split accross interleaves
Interleave, duration : 40 ms (1.00 video frame)
Interleave, preload duration : 500 ms
Релиз от:
[Profile] [PM]
Display posts:    
Reply to topic

Current time is: 17-Aug 21:23

All times are UTC + 3



You cannot post new topics in this forum
You cannot reply to topics in this forum
You cannot edit your posts in this forum
You cannot delete your posts in this forum
You cannot vote in polls in this forum
You cannot attach files in this forum
You cannot download files in this forum