Никто, кроме нас [1-2 серии из 2] (2018) WEB-DLRip от Files-x

Reply to topic
 
Author Message

papa1951deda ®

Gender: Male

Longevity: 5 months 2 days

Posts: 220

Location: Казахстан

Post 02-Dec-2018 06:56

[Quote]

Никто, кроме нас Год выпуска: 2018
Жанр: Мелодрама
Выпущено: Россия, Беркана, Медиа-Арена
Режиссёр: Рано Кубаева
В ролях: Кристина Кузьмина, Наталья Ткаченко, Александр Кудренко, Геннадий Смирнов, Дарья Пармененкова, Андрис Булис, Надежда Мельникова, Мария Скуратова (II), Екатерина Белова (III)
О фильме: Несмотря на то, что Вера и Люба – сёстры, они абсолютно разные. Для Веры главное в жизни – это работа. Она высококлассный хирург и отдает профессии все свое время и силы, жертвуя порой отношениями с дочерью и личным счастьем. Люба – домохозяйка. Всю себя она посвящает мужу и детям. Из-за разных взглядов на жизнь сестры постоянно ссорятся и уже практически не разговаривают друг с другом. Но внезапно все меняется! Оказывается, что Люба не нужна ни мужу, ни детям, которые устали от ее заботы. А Веру отстраняют от работы – ее предали коллеги, и ей грозит тюрьма. Теперь сестрам придется искать путь друг к другу, ведь никто кроме них самих им не поможет…
Качество: WEB-DLRip
Видео: XviD, ~ 1600 Кбит/с, 720x400, 25 кадр/с
Аудио: AC3, 2 ch, 192 Кбит/с
Продолжительность: 2 х ~ 01:30:00
Перевод: Не требуется
Субтитры: Нет

Скриншоты

MediaInfo

General
Complete name : D:\моё видио\01.Никто кроме нас.(2018).WEBRip.by.Серый1779.Files-x.avi
Format : AVI
Format/Info : Audio Video Interleave
File size : 1.12 GiB
Duration : 1h 28mn
Overall bit rate : 1 802 Kbps
Writing application : VirtualDubMod 1.5.10.3 | www.virtualdub-fr.org || (build 2550/release)
Writing library : VirtualDubMod build 2550/release
Video
ID : 0
Format : MPEG-4 Visual
Format profile : Advanced Simple@L5
Format settings, BVOP : 1
Format settings, QPel : No
Format settings, GMC : No warppoints
Format settings, Matrix : Custom
Codec ID : XVID
Codec ID/Hint : XviD
Duration : 1h 28mn
Bit rate : 1 600 Kbps
Width : 720 pixels
Height : 400 pixels
Display aspect ratio : 16:9
Frame rate : 25.000 fps
Color space : YUV
Chroma subsampling : 4:2:0
Bit depth : 8 bits
Scan type : Progressive
Compression mode : Lossy
Bits/(Pixel*Frame) : 0.222
Stream size : 1 018 MiB (89%)
Writing library : XviD 73
Audio
ID : 1
Format : AC-3
Format/Info : Audio Coding 3
Mode extension : CM (complete main)
Format settings, Endianness : Big
Codec ID : 2000
Duration : 1h 28mn
Bit rate mode : Constant
Bit rate : 192 Kbps
Channel(s) : 2 channels
Channel positions : Front: L R
Sampling rate : 48.0 KHz
Bit depth : 16 bits
Compression mode : Lossy
Stream size : 122 MiB (11%)
Alignment : Split accross interleaves
Interleave, duration : 40 ms (1.00 video frame)
Interleave, preload duration : 500 ms

Внимание! Раздача ведётся путём добавления новых серий

Раздача ведётся путём добавления новых серий, при каждом добавлении создаётся новый торрент. Чтобы начать докачку новой серии, пользователям необходимо сделать следующее:
- Остановить скачивание.
- Удалить старый торрент у себя из клиента (старые серии удалять не надо).
- Скачать новый торрент и запустить его у себя в клиенте вместо старого, при этом указать клиенту путь в старую папку куда и должно происходить скачивание новых серий.
Ваш клиент при этом должен произвести хеширование (проверку) старой папки (если не производит сам - помогите ему сделать это), и будет докачивать только те серии которых у вас ещё нет. Старые серии при этом не удаляются, а продолжают раздаваться!
Релиз от:
[Profile] [PM]

papa1951deda ®

Gender: Male

Longevity: 5 months 2 days

Posts: 220

Location: Казахстан

Post 02-Dec-2018 12:28 (after 5 hours)

[Quote]

Добавлена 2 серия
[Profile] [PM]
Display posts:    
Reply to topic

Current time is: 22-Apr 18:20

All times are UTC + 3



You cannot post new topics in this forum
You cannot reply to topics in this forum
You cannot edit your posts in this forum
You cannot delete your posts in this forum
You cannot vote in polls in this forum
You cannot attach files in this forum
You cannot download files in this forum