Никто, кроме нас [1-2 серии из 2] (2018) WEBRip-AVC от Files-x

Reply to topic
 
Author Message

Серый1779 ®

Gender: Male

Longevity: 8 months 9 days

Posts: 494

Location: Украина

Post 02-Dec-2018 11:50

[Quote]

Никто, кроме нас Год выпуска: 2018
Жанр: Мелодрама
Выпущено: Россия, Беркана, Медиа-Арена
Режиссёр: Рано Кубаева
В ролях: Кристина Кузьмина, Наталья Ткаченко, Александр Кудренко, Геннадий Смирнов, Дарья Пармененкова, Андрис Булис, Надежда Мельникова, Мария Скуратова (II), Екатерина Белова (III)
О фильме: Несмотря на то, что Вера и Люба – сёстры, они абсолютно разные. Для Веры главное в жизни – это работа. Она высококлассный хирург и отдает профессии все свое время и силы, жертвуя порой отношениями с дочерью и личным счастьем. Люба – домохозяйка. Всю себя она посвящает мужу и детям. Из-за разных взглядов на жизнь сестры постоянно ссорятся и уже практически не разговаривают друг с другом. Но внезапно все меняется! Оказывается, что Люба не нужна ни мужу, ни детям, которые устали от ее заботы. А Веру отстраняют от работы – ее предали коллеги, и ей грозит тюрьма. Теперь сестрам придется искать путь друг к другу, ведь никто кроме них самих им не поможет…
Качество: WEBRip-AVC
Видео: MPEG-4 AVC, ~ 1600 Кбит/с, 1024x576, 25 кадр/с
Аудио: AC3, 2 ch, 192 Кбит/с
Продолжительность: 2 х ~ 01:30:00
Перевод: Не требуется
Субтитры: Нет

Скриншоты


MediaInfo

General
Unique ID : 217691315022451262681321571307268851070 (0xA3C5D27D3CE159DA93C5AB79E77BC57E)
Complete name : F:\Никто кроме нас.(2018).WEBLRip.(AVC).Files-x\01.Никто кроме нас.(2018).WEBRip.(AVC).by.Серый1779.Files-x.mkv
Format : Matroska
Format version : Version 2
File size : 1.11 GiB
Duration : 1 h 28 min
Overall bit rate : 1 794 kb/s
Encoded date : UTC 2018-12-02 00:38:01
Writing application : mkvmerge v7.8.0 ('River Man') 32bit built on Apr 3 2015 12:11:22
Writing library : libebml v1.3.1 + libmatroska v1.4.2
Video
ID : 1
Format : AVC
Format/Info : Advanced Video Codec
Format profile : High@L4.1
Format settings : CABAC / 9 Ref Frames
Format settings, CABAC : Yes
Format settings, RefFrames : 9 frames
Codec ID : V_MPEG4/ISO/AVC
Duration : 1 h 28 min
Bit rate : 1 600 kb/s
Width : 1 024 pixels
Height : 576 pixels
Display aspect ratio : 16:9
Frame rate mode : Constant
Frame rate : 25.000 FPS
Color space : YUV
Chroma subsampling : 4:2:0
Bit depth : 8 bits
Scan type : Progressive
Bits/(Pixel*Frame) : 0.109
Stream size : 996 MiB (87%)
Writing library : x264 core 146 r2538 121396c
Encoding settings : cabac=1 / ref=9 / deblock=1:-2:-1 / analyse=0x3:0x133 / me=umh / subme=9 / psy=1 / psy_rd=1.00:0.15 / mixed_ref=1 / me_range=32 / chroma_me=1 / trellis=2 / 8x8dct=1 / cqm=0 / deadzone=21,11 / fast_pskip=0 / chroma_qp_offset=-3 / threads=18 / lookahead_threads=3 / sliced_threads=0 / nr=0 / decimate=1 / interlaced=0 / bluray_compat=0 / constrained_intra=0 / bframes=9 / b_pyramid=2 / b_adapt=2 / b_bias=0 / direct=1 / weightb=1 / open_gop=0 / weightp=2 / keyint=250 / keyint_min=25 / scenecut=40 / intra_refresh=0 / rc=2pass / mbtree=0 / bitrate=1600 / ratetol=1.0 / qcomp=0.60 / qpmin=0 / qpmax=69 / qpstep=4 / cplxblur=20.0 / qblur=0.5 / ip_ratio=1.40 / pb_ratio=1.30 / aq=2:1.00
Default : Yes
Forced : No
Color range : Limited
Color primaries : BT.709
Transfer characteristics : BT.709
Matrix coefficients : BT.709
Audio
ID : 2
Format : AC-3
Format/Info : Audio Coding 3
Format settings, Endianness : Big
Codec ID : A_AC3
Duration : 1 h 28 min
Bit rate mode : Constant
Bit rate : 192 kb/s
Channel(s) : 2 channels
Channel positions : Front: L R
Sampling rate : 44.1 kHz
Frame rate : 28.711 FPS (1536 SPF)
Bit depth : 16 bits
Compression mode : Lossy
Stream size : 122 MiB (11%)
Service kind : Complete Main
Default : Yes
Forced : No
Релиз от:
[Profile] [PM]
Display posts:    
Reply to topic

Current time is: 22-Jul 05:48

All times are UTC + 3



You cannot post new topics in this forum
You cannot reply to topics in this forum
You cannot edit your posts in this forum
You cannot delete your posts in this forum
You cannot vote in polls in this forum
You cannot attach files in this forum
You cannot download files in this forum