Инуясики / Inuyashiki (2018) BDRip 1080p

Reply to topic
 
Author Message

Monk ®

Gender: Male

Longevity: 11 months 4 days

Posts: 9032

Location: Казань

Post 02-Dec-2018 14:24

[Quote]

Инуясики / Inuyashiki Год выпуска: 2018
Жанр: Боевик, фантастика, триллер, драма
Выпущено: Япония,Annex Digital, Picture Element, Solid Arts, Voxel
Режиссер: Синсуке Сато
В ролях: Норитакэ Кинаси, Такэру Сато, Каната Хонго, Аяка Миёси, Наюта Фукудзаки, Мари Хамада, Фуми Никайдо, Юки Саито, Юсукэ Исэя, Сарии Икэгами
О фильме: Пожилой японец предпенсионного возраста узнает, что смертельно болен. Рассказать об этом равнодушному семейству он не может, поэтому тихо плачется в шерстяную жилетку приблудившегося пса. В этот момент в небе появляются странные огни, старик слепнет, теряет сознание, а когда приходит в себя, оказывается, что неведомая сила превратила его в человекоподобного боевого робота. Теперь дедуля Инуясики способен летать, превращать руку в пулемёт, но предпочитает вылечивать смертельно больных детей. И вот беда: похожие способности получил старшеклассник Сисигами, циник и нигилист, без малейшего сожаления убивающий направо и налево.

Качество: BDRip 1080p
Видео: MPEG-4 AVC, 1920x804, 11.9 Mбит/с, 23.976 кадр/с
Аудио: Русский (AC3, 2 ch, 224 Кбит/с), японский (DTS, 6 ch, 768 Кбит/с)
Продолжительность: 02:06:12
Перевод: Любительский двухголосый [студия "XDUB DORAMA"]
Субтитры: Английские, китайские, японские

Скриншоты



MediaInfo

General
Unique ID : 176922782069970960526819543691775383527 (0x851A16A04978669799B7B12C1BA717E7)
Complete name : Inuyashiki.2018.BDRip.1080p.mkv
Format : Matroska
Format version : Version 4
File size : 11.4 GiB
Duration : 2 h 6 min
Overall bit rate : 13.0 Mb/s
Encoded date : UTC 2018-11-21 15:53:01
Writing application : mkvmerge v7.1.0 ('Good Love') 64bit built on Jul 27 2014 13:06:55
Writing library : libebml v1.3.0 + libmatroska v1.4.1
Video
ID : 1
Format : AVC
Format/Info : Advanced Video Codec
Format profile : High@L4.1
Format settings : CABAC / 5 Ref Frames
Format settings, CABAC : Yes
Format settings, ReFrames : 5 frames
Codec ID : V_MPEG4/ISO/AVC
Duration : 2 h 6 min
Bit rate : 11.9 Mb/s
Width : 1 920 pixels
Height : 804 pixels
Display aspect ratio : 2.40:1
Frame rate mode : Constant
Frame rate : 23.976 (24000/1001) FPS
Color space : YUV
Chroma subsampling : 4:2:0
Bit depth : 8 bits
Scan type : Progressive
Bits/(Pixel*Frame) : 0.322
Stream size : 10.5 GiB (92%)
Writing library : x264 core 129 r2245+704+36 8e61944 tMod+MixAQ [8-bit@4:2:0 X86_64]
Encoding settings : cabac=1 / ref=5 / deblock=1:-3:-3 / analyse=0x3:0x133 / me=umh / subme=11 / psy=1 / fade_compensate=0.00 / psy_rd=1.05:0.10 / mixed_ref=1 / me_range=64 / chroma_me=1 / trellis=2 / 8x8dct=1 / cqm=0 / deadzone=21,11 / fast_pskip=0 / chroma_qp_offset=-3 / threads=12 / lookahead_threads=2 / sliced_threads=0 / nr=0 / decimate=1 / interlaced=0 / bluray_compat=0 / constrained_intra=0 / fgo=0 / bframes=10 / b_pyramid=2 / b_adapt=2 / b_bias=0 / direct=3 / weightb=1 / open_gop=0 / weightp=2 / keyint=250 / keyint_min=23 / scenecut=40 / intra_refresh=0 / rc=crf / mbtree=0 / crf=18.0000 / qcomp=0.75 / qpmin=0 / qpmax=69 / qpstep=4 / ip_ratio=1.25 / pb_ratio=1.15 / aq=1 / aq-strength=0.65 / aq-sensitivity=10.00 / aq-ifactor=1.00 / aq-pfactor=1.00 / aq-bfactor=1.00 / aq2=0
Language : Japanese
Default : Yes
Forced : No
Audio #1
ID : 2
Format : AC-3
Format/Info : Audio Coding 3
Commercial name : Dolby Digital
Codec ID : A_AC3
Duration : 2 h 6 min
Bit rate mode : Constant
Bit rate : 224 kb/s
Channel(s) : 2 channels
Channel layout : L R
Sampling rate : 48.0 kHz
Frame rate : 31.250 FPS (1536 SPF)
Bit depth : 16 bits
Compression mode : Lossy
Stream size : 202 MiB (2%)
Language : Russian
Service kind : Complete Main
Default : Yes
Forced : No
Audio #2
ID : 3
Format : DTS
Format/Info : Digital Theater Systems
Codec ID : A_DTS
Duration : 2 h 6 min
Bit rate mode : Constant
Bit rate : 768 kb/s
Channel(s) : 6 channels
Channel layout : C L R Ls Rs LFE
Sampling rate : 48.0 kHz
Frame rate : 93.750 FPS (512 SPF)
Bit depth : 24 bits
Compression mode : Lossy
Stream size : 693 MiB (6%)
Title : Japanese DTS 5.1 @ 768 Kbps
Language : Japanese
Default : No
Forced : No
Text #1
ID : 4
Format : UTF-8
Codec ID : S_TEXT/UTF8
Codec ID/Info : UTF-8 Plain Text
Duration : 2 h 0 min
Bit rate : 39 b/s
Count of elements : 1227
Stream size : 35.0 KiB (0%)
Language : English
Default : No
Forced : No
Text #2
ID : 5
Format : ASS
Codec ID : S_TEXT/ASS
Codec ID/Info : Advanced Sub Station Alpha
Duration : 2 h 0 min
Bit rate : 69 b/s
Count of elements : 1227
Compression mode : Lossless
Stream size : 61.5 KiB (0%)
Language : English
Default : No
Forced : No
Text #3
ID : 6
Format : PGS
Muxing mode : zlib
Codec ID : S_HDMV/PGS
Codec ID/Info : Picture based subtitle format used on BDs/HD-DVDs
Duration : 2 h 5 min
Bit rate : 54.3 kb/s
Count of elements : 7033
Stream size : 48.6 MiB (0%)
Title : Japanese (PGS)
Language : Japanese
Default : No
Forced : No
Text #4
ID : 7
Format : ASS
Codec ID : S_TEXT/ASS
Codec ID/Info : Advanced Sub Station Alpha
Duration : 2 h 0 min
Bit rate : 63 b/s
Count of elements : 1152
Compression mode : Lossless
Stream size : 56.6 KiB (0%)
Title : Traditional Chinese (SUBPIG)
Language : Chinese
Default : No
Forced : No
Menu
00:00:00.000 : :00:00:00.000
00:08:11.324 : :00:08:11.324
00:13:49.412 : :00:13:49.412
00:19:04.518 : :00:19:04.518
00:24:45.609 : :00:24:45.609
00:30:41.923 : :00:30:41.923
00:38:23.885 : :00:38:23.885
00:43:40.576 : :00:43:40.576
00:49:53.199 : :00:49:53.199
00:56:35.058 : :00:56:35.058
01:00:14.152 : :01:00:14.152
01:06:05.295 : :01:06:05.295
01:13:47.298 : :01:13:47.298
01:20:11.932 : :01:20:11.932
01:23:43.894 : :01:23:43.894
01:32:55.236 : :01:32:55.236
01:44:05.197 : :01:44:05.197
01:51:41.194 : :01:51:41.194
01:56:47.292 : :01:56:47.292
02:01:22.400 : :02:01:22.400
[Profile] [PM]
Display posts:    
Reply to topic

Current time is: 18-Oct 22:57

All times are UTC + 3



You cannot post new topics in this forum
You cannot reply to topics in this forum
You cannot edit your posts in this forum
You cannot delete your posts in this forum
You cannot vote in polls in this forum
You cannot attach files in this forum
You cannot download files in this forum