Инуясики / Inuyashiki (2018) HDRip | XDUB DORAMA

Reply to topic
 
Author Message

Monk ®

Gender: Male

Longevity: 1 year 7 months

Posts: 12420

Location: Казань

Post 22-Nov-2018 15:32

[Quote]

Инуясики / Inuyashiki Год выпуска: 2018
Жанр: Боевик, фантастика, триллер, драма
Выпущено: Япония,Annex Digital, Picture Element, Solid Arts, Voxel
Режиссер: Синсуке Сато
В ролях: Норитакэ Кинаси, Такэру Сато, Каната Хонго, Аяка Миёси, Наюта Фукудзаки, Мари Хамада, Фуми Никайдо, Юки Саито, Юсукэ Исэя, Сарии Икэгами
О фильме: Пожилой японец предпенсионного возраста узнает, что смертельно болен. Рассказать об этом равнодушному семейству он не может, поэтому тихо плачется в шерстяную жилетку приблудившегося пса. В этот момент в небе появляются странные огни, старик слепнет, теряет сознание, а когда приходит в себя, оказывается, что неведомая сила превратила его в человекоподобного боевого робота. Теперь дедуля Инуясики способен летать, превращать руку в пулемёт, но предпочитает вылечивать смертельно больных детей. И вот беда: похожие способности получил старшеклассник Сисигами, циник и нигилист, без малейшего сожаления убивающий направо и налево.
Качество: HDRip
Видео: XviD, 1460 Кбит/с, 720x304
Аудио: Русский (АС3, 2 ch, 192 Кбит/с), японский (АС3, 6 ch, 448 Кбит/с)
Продолжительность: 02:06:12
Перевод: Любительский двухголосый [XDUB DORAMA]
Субтитры: Английские

Скриншоты



MediaInfo

Общее
Полное имя : C:\Inuyasiki.2018.HDRip\Inuyasiki.2018.HDRip.avi
Формат : AVI
Формат/Информация : Audio Video Interleave
Размер файла : 1,46 Гбайт
Продолжительность : 2 ч. 6 м.
Общий поток : 1661 Кбит/сек
Название фильма : Инуясики / Inuyashiki (2018) HDRip
Режиссёр : Синсуке Сато / Shinsuke Sato
Жанр : Боевик, фантастика, триллер
Программа кодирования : VirtualDubMod 1.5.10.2 (build 2542/release)
Формат оригинала/Имя : Художественный фильм
Авторское право : Япония, Annex Digital, C's Craft, Design Kombinat
Примечание : Rip by vitolinform
Видео
Идентификатор : 0
Формат : MPEG-4 Visual
Профиль формата : Advanced Simple@L5
Настройки формата : BVOP2
Параметр BVOP формата : 2
Параметр QPel формата : Нет
Параметр GMC формата : Без точки перехода
Параметр матрицы формата : Default (MPEG)
Идентификатор кодека : XVID
Идентификатор кодека/Подсказка : XviD
Продолжительность : 2 ч. 6 м.
Битрейт : 1460 Кбит/сек
Ширина : 720 пикселей
Высота : 304 пикселя
Соотношение сторон : 2,35:1
Частота кадров : 23,976 (24000/1001) кадра/сек
Цветовое пространство : YUV
Субдискретизация насыщенности : 4:2:0
Битовая глубина : 8 бит
Тип развёртки : Прогрессивная
Метод сжатия : С потерями
Бит/(Пиксели*Кадры) : 0.278
Размер потока : 1,29 Гбайт (88%)
Библиотека кодирования : XviD 67
Аудио
Идентификатор : 1
Формат : AC-3
Формат/Информация : Audio Coding 3
Коммерческое название : Dolby Digital
Идентификатор кодека : 2000
Продолжительность : 2 ч. 6 м.
Вид битрейта : Постоянный
Битрейт : 192 Кбит/сек
Каналы : 2 канала
ChannelLayout : L R
Частота : 48,0 КГц
Частота кадров : 31,250 кадров/сек (1536 SPF)
Битовая глубина : 16 бит
Метод сжатия : С потерями
Размер потока : 173 Мбайт (12%)
Выравнивание : Разделение по промежуткам
Продолжительность промежутка : 42 мс. (1,00 видеокадр)
Время предзагрузки промежутка : 500 мс.
Заголовок : Russian (DVO XDUB DORAMA)
ServiceKind/String : Complete Main
Общее
Полное имя : C:\Inuyasiki.2018.HDRip\Inuyasiki.2018.HDRip_jap.ac3
Формат : AC-3
Формат/Информация : Audio Coding 3
Коммерческое название : Dolby Digital
Размер файла : 404 Мбайт
Продолжительность : 2 ч. 6 м.
Режим общего битрейта : Постоянный
Общий поток : 448 Кбит/сек
Аудио
Формат : AC-3
Формат/Информация : Audio Coding 3
Коммерческое название : Dolby Digital
Продолжительность : 2 ч. 6 м.
Вид битрейта : Постоянный
Битрейт : 448 Кбит/сек
Каналы : 6 каналов
ChannelLayout : L R C LFE Ls Rs
Частота : 48,0 КГц
Частота кадров : 31,250 кадров/сек (1536 SPF)
Битовая глубина : 16 бит
Метод сжатия : С потерями
Размер потока : 404 Мбайт (100%)
ServiceKind/String : Complete Main
Общее
Полное имя : C:\Inuyasiki.2018.HDRip\Inuyasiki.2018.HDRip_eng.srt
Формат : SubRip
Размер файла : 80,1 Кбайт
Текст
Формат : SubRip
Метод сжатия : Без потерь
[Profile] [PM]
Display posts:    
Reply to topic

Current time is: 10-Jul 06:35

All times are UTC + 3



You cannot post new topics in this forum
You cannot reply to topics in this forum
You cannot edit your posts in this forum
You cannot delete your posts in this forum
You cannot vote in polls in this forum
You cannot attach files in this forum
You cannot download files in this forum