Медное солнце / Юбилейный встречный [1-2 фильмы из 2] (2018) WEBRip 1080p от tahiy

Reply to topic
 
Author Message

tahiy ®

Gender: Male

Longevity: 6 months 4 days

Posts: 4

Post 02-Dec-2018 19:02

[Quote]

Медное солнце / Юбилейный встречный Год выпуска: 2018
Жанр: Драма, военный
Выпущено: Россия, МАРС Медиа, КАРГО по заказу телеканала НТВ
Режиссер: Карен Оганесян
В ролях: Владимир Машков, Микаэл Джанибекян, Ольга Медынич, Алексей Шевченков, Максим Емельянов, Сабина Ахмедова, Зарина Мухитдинова, Олег Галахов, Владимир Нисков
О фильме: 1991-й год. Некогда единый и могучий Советский Союз раскалывается изнутри. Жители удалённого кишлака в Средней Азии с тревогой узнают новости о волнениях, прокатывающихся по стране. Но ведь здесь местные давно живут бок о бок с русскими. Герои нашей истории — музыканты полкового оркестра, отработавшие на свадьбе в дальнем ауле и вернувшиеся в часть к пустым баракам. Полк получил срочный приказ о передислокации и ушёл. В это время в горах появился отряд боевиков, перешедших границу для того, чтобы начать в стране гражданскую войну. И вместо того, чтобы догонять полк, музыканты, половина из которых ещё совсем мальчишки, остаются для защиты мира в посёлке. Это история про проверку на человечность, силу духа, умение устоять против волны ненависти и гнева, про любовь и, конечно, про музыку, которая побеждает там, где автоматы и танки бессильны.

Качество: WEBRip 1080p
Видео: MPEG-4 AVC, ~ 3700 Кбит/с, 1920x804
Аудио: AC3, 2 ch, 192 Кбит/с
Продолжительность: 2 x ~ 02:17:00
Перевод: Не требуется

Скриншоты


MediaInfo

Полное имя : E:\Mednoe solnce 2018_ [tahiy]\Mednoe.solnce.(02.film.iz.02).2018.WEB-DLRip.(1080p)_ [tahiy].mkv
Формат : Matroska
Версия формата : Version 2
Размер файла : 3,50 Гбайт
Продолжительность : 2 ч. 2 м.
Общий поток : 4087 Кбит/сек
Дата кодирования : UTC 2018-12-02 14:40:55
Программа кодирования : mkvmerge v6.1.0 ('Old Devil') built on Mar 4 2013 09:10:42
Библиотека кодирования : libebml v1.3.0 + libmatroska v1.4.0
Видео
Идентификатор : 1
Формат : AVC
Формат/Информация : Advanced Video Codec
Профиль формата : High@L4.1
Настройки формата : CABAC / 4 Ref Frames
Параметр CABAC формата : Да
Параметр RefFrames формата : 4 кадра
Идентификатор кодека : V_MPEG4/ISO/AVC
Продолжительность : 2 ч. 2 м.
Битрейт : 3894 Кбит/сек
Ширина : 1920 пикселей
Высота : 804 пикселя
Соотношение сторон : 2,40:1
Режим частоты кадров : Постоянный
Частота кадров : 25,000 кадров/сек
Цветовое пространство : YUV
Субдискретизация насыщенности : 4:2:0
Битовая глубина : 8 бит
Тип развёртки : Прогрессивная
Бит/(Пиксели*Кадры) : 0.101
Размер потока : 3,27 Гбайт (93%)
Библиотека кодирования : x264 core 130 r2273 b3065e6
Настройки программы : cabac=1 / ref=4 / deblock=1:-2:-2 / analyse=0x3:0x113 / me=umh / subme=10 / psy=1 / psy_rd=1.00:0.20 / mixed_ref=1 / me_range=32 / chroma_me=1 / trellis=2 / 8x8dct=1 / cqm=0 / deadzone=21,11 / fast_pskip=0 / chroma_qp_offset=-3 / threads=6 / lookahead_threads=1 / sliced_threads=0 / nr=0 / decimate=0 / interlaced=0 / bluray_compat=0 / constrained_intra=0 / bframes=8 / b_pyramid=2 / b_adapt=2 / b_bias=0 / direct=3 / weightb=1 / open_gop=0 / weightp=2 / keyint=250 / keyint_min=25 / scenecut=40 / intra_refresh=0 / rc_lookahead=40 / rc=2pass / mbtree=0 / bitrate=3894 / ratetol=1.0 / qcomp=0.60 / qpmin=0 / qpmax=69 / qpstep=4 / cplxblur=20.0 / qblur=0.5 / vbv_maxrate=50000 / vbv_bufsize=62500 / nal_hrd=none / ip_ratio=1.40 / pb_ratio=1.30 / aq=1:1.00
Default : Да
Forced : Нет
Аудио
Идентификатор : 2
Формат : AC-3
Формат/Информация : Audio Coding 3
Идентификатор кодека : A_AC3
Продолжительность : 2 ч. 2 м.
Вид битрейта : Постоянный
Битрейт : 192 Кбит/сек
Каналы : 2 канала
Расположение каналов : Front: L R
Частота : 48,0 КГц
Частота кадров : 31,250 кадров/сек (1536 SPF)
Битовая глубина : 16 бит
Метод сжатия : С потерями
Размер потока : 168 Мбайт (5%)
ServiceKind/String : Complete Main
Default : Да
Forced : Нет
Релиз от:
[Profile] [PM]
Display posts:    
Reply to topic

Current time is: 24-May 13:02

All times are UTC + 3



You cannot post new topics in this forum
You cannot reply to topics in this forum
You cannot edit your posts in this forum
You cannot delete your posts in this forum
You cannot vote in polls in this forum
You cannot attach files in this forum
You cannot download files in this forum