Медное солнце / Юбилейный встречный [1-2 фильмы из 2] (2018) WEBRip от GeneralFilm

Reply to topic
 
Author Message

vsobbol ®

Gender: Male

Longevity: 8 months 7 days

Posts: 239

Location: Донецк

Post 27-Nov-2018 07:21

[Quote]

Медное солнце / Юбилейный встречный
Год выпуска: 2018
Жанр: Драма, военный
Выпущено: Россия, «МАРС Медиа», «КАРГО» по заказу телеканала НТВ
Режиссер: Карен Оганесян
В ролях: Владимир Машков, Микаэл Джанибекян, Ольга Медынич, Алексей Шевченков, Максим Емельянов, Сабина Ахмедова, Зарина Мухитдинова, Олег Галахов, Владимир Нисков
О фильме: 1991-й год. Некогда единый и могучий Советский Союз раскалывается изнутри. Жители удалённого кишлака в Средней Азии с тревогой узнают новости о волнениях, прокатывающихся по стране. Но ведь здесь местные давно живут бок о бок с русскими. Герои нашей истории — музыканты полкового оркестра, отработавшие на свадьбе в дальнем ауле и вернувшиеся в часть к пустым баракам. Полк получил срочный приказ о передислокации и ушёл. В это время в горах появился отряд боевиков, перешедших границу для того, чтобы начать в стране гражданскую войну. И вместо того, чтобы догонять полк, музыканты, половина из которых ещё совсем мальчишки, остаются для защиты мира в посёлке. Это история про проверку на человечность, силу духа, умение устоять против волны ненависти и гнева, про любовь и, конечно, про музыку, которая побеждает там, где автоматы и танки бессильны.

Качество: WEBRip
Видео: XviD build 73, 720x304 (2.35:1), 25.000 fps, ~ 1500 Kbps (~ 0.275 bit/pixel)
Аудио: 48.0 kHz, AC3, 2/0 ch, 192 kbps
Продолжительность: 2 x ~ 02:17:00
Перевод: Не требуется
Субтитры: нет

Скриншоты

MediaInfo

General
Complete name : D:\Razdachi\Mednoe.Solnce.2018.XviD.WEBRip.GeneralFilm\Mednoe.Solnce.e01.avi
Format : AVI
Format/Info : Audio Video Interleave
File size : 1.63 GiB
Duration : 2 h 16 min
Overall bit rate : 1 708 kb/s
Writing application : VirtualDubMod 1.5.10.3 | www.virtualdub-fr.org || (build 2550/release)
Writing library : VirtualDubMod build 2550/release
Video
ID : 0
Format : MPEG-4 Visual
Format profile : Advanced Simple@L5
Format settings, BVOP : 1
Format settings, QPel : No
Format settings, GMC : No warppoints
Format settings, Matrix : Custom
Codec ID : XVID
Codec ID/Hint : XviD
Duration : 2 h 16 min
Bit rate : 1 506 kb/s
Width : 720 pixels
Height : 304 pixels
Display aspect ratio : 2.35:1
Frame rate : 25.000 FPS
Color space : YUV
Chroma subsampling : 4:2:0
Bit depth : 8 bits
Scan type : Progressive
Compression mode : Lossy
Bits/(Pixel*Frame) : 0.275
Stream size : 1.44 GiB (88%)
Writing library : XviD 73
Audio
ID : 1
Format : AC-3
Format/Info : Audio Coding 3
Format settings, Endianness : Big
Codec ID : 2000
Duration : 2 h 16 min
Bit rate mode : Constant
Bit rate : 192 kb/s
Channel(s) : 2 channels
Channel positions : Front: L R
Sampling rate : 48.0 kHz
Frame rate : 31.250 FPS (1536 SPF)
Bit depth : 16 bits
Compression mode : Lossy
Stream size : 188 MiB (11%)
Alignment : Split accross interleaves
Interleave, duration : 40 ms (1.00 video frame)
Interleave, preload duratio : 500 ms
Service kind : Complete Main
Релиз от:
[Profile] [PM]
Display posts:    
Reply to topic

Current time is: 23-Jul 11:48

All times are UTC + 3



You cannot post new topics in this forum
You cannot reply to topics in this forum
You cannot edit your posts in this forum
You cannot delete your posts in this forum
You cannot vote in polls in this forum
You cannot attach files in this forum
You cannot download files in this forum