Любовь по приказу [1-8 серии из 8] (2016) WEB-DL 720p от Files-x

Reply to topic
 
Author Message

bond74 ®

Gender: Male

Longevity: 8 months 7 days

Posts: 553

Post 02-Dec-2018 21:13

[Quote]

Любовь по приказу Год выпуска: 2016
Жанр: Мелодрама
Выпущено: Россия, Феникс-Фильм
Режиссер: Николай Борц
В ролях: Александр Мохов, Артём Быстров, Полина Сыркина, Валерий Панков, Марина Куделинская, Андрей Дудников, Юлия Шиферштейн, Стасс Классен, Сергей Барковский, Ёла Санько, Владимир Гусев (II), Евгения Дмитриева, Игорь Ветров (II)
О фильме: Действия сериала «Любовь по приказу» переносят своего зрителя в 1988 год. Главная героиня – талантливая и молодая актриса. Каждый день с большим нетерпением ее возвращения домой ожидают сын и любимый супруг. Варвара по-настоящему счастлива и искренне верит, что так будет всегда. Случайно на один из ее спектаклей попадает известный режиссер, который приглашает актрису к себе в театр. Героиня принимает приглашение. В один момент весь мир, в котором жила Варвара, рушится. Происходит это после того, как ее супруг на глазах жены погибает. После его похорон выясняется, что мужчина в ближайшее время планировал покинуть страну вместе со всей своей семьей и переехать жить за границу, прихватив с собой ценные документы. Варя даже предположить не могла, что ее любимый был на это способен и не догадывалась о переезде. Однако КГБ было известно об этих планах и теперь Варя находится под подозрением...

Качество: WEB-DL 720p
Видео: MPEG-4 AVC, ~ 3200 Кбит/с, 1280x720, 25 кадр/с
Аудио: AC3, 2 ch, 192 Кбит/с
Продолжительность: 8 х ~ 00:50:00
Перевод: Не требуется
Субтитры: нет

Скриншоты

MediaInfo

General
Unique ID : 182056880488025936452647368942005213713 (0x88F6E138B22AA566A3C92763F1675A11)
Complete name : H:\Lyubov.po.prikazu (2016) WEB-DL 720p Files-x\Lyubov.po.prikazu.e01.2016.WEB-DL.720p. Files-x.mkv
Format : Matroska
File size : 1.17 GiB
Duration : 50mn 34s
Overall bit rate : 3 318 Kbps
Encoded date : UTC 2018-08-13 19:45:06
Writing application : mkvmerge v7.8.0 ('River Man') 32bit built on Apr 3 2015 12:11:22
Writing library : libebml v1.3.1 + libmatroska v1.4.2
Video
ID : 1
Format : AVC
Format/Info : Advanced Video Codec
Format profile : High@L4.1
Format settings, CABAC : Yes
Format settings, ReFrames : 4 frames
Codec ID : V_MPEG4/ISO/AVC
Duration : 50mn 34s
Bit rate mode : Constant
Bit rate : 3 200 Kbps / 3 200 Kbps
Width : 1 280 pixels
Height : 720 pixels
Display aspect ratio : 16:9
Frame rate mode : Variable
Frame rate : 25.000 fps
Color space : YUV
Chroma subsampling : 4:2:0
Bit depth : 8 bits
Scan type : Progressive
Bits/(Pixel*Frame) : 0.139
Stream size : 1.08 GiB (92%)
Writing library : x264 core 148
Encoding settings : cabac=1 / ref=2 / deblock=1:0:0 / analyse=0x3:0x113 / me=hex / subme=6 / psy=1 / psy_rd=1.00:0.00 / mixed_ref=1 / me_range=16 / chroma_me=1 / trellis=1 / 8x8dct=1 / cqm=0 / deadzone=21,11 / fast_pskip=1 / chroma_qp_offset=-2 / threads=1 / lookahead_threads=1 / sliced_threads=0 / nr=0 / decimate=1 / interlaced=0 / bluray_compat=0 / constrained_intra=0 / bframes=3 / b_pyramid=2 / b_adapt=1 / b_bias=0 / direct=1 / weightb=1 / open_gop=0 / weightp=1 / keyint=250 / keyint_min=25 / scenecut=0 / intra_refresh=0 / rc_lookahead=30 / rc=cbr / mbtree=1 / bitrate=3200 / ratetol=1.0 / qcomp=0.60 / qpmin=0 / qpmax=69 / qpstep=4 / vbv_maxrate=3200 / vbv_bufsize=1600 / nal_hrd=cbr / filler=1 / ip_ratio=1.40 / aq=1:1.00
Audio
ID : 2
Format : AC-3
Format/Info : Audio Coding 3
Mode extension : CM (complete main)
Codec ID : A_AC3
Duration : 50mn 34s
Bit rate mode : Constant
Bit rate : 192 Kbps
Channel(s) : 2 channels
Channel positions : Front: L R
Sampling rate : 48.0 KHz
Bit depth : 16 bits
Compression mode : Lossy
Delay relative to video : -61ms
Stream size : 69.4 MiB (6%)
Релиз от:
[Profile] [PM]
Display posts:    
Reply to topic

Current time is: 22-Jul 05:46

All times are UTC + 3



You cannot post new topics in this forum
You cannot reply to topics in this forum
You cannot edit your posts in this forum
You cannot delete your posts in this forum
You cannot vote in polls in this forum
You cannot attach files in this forum
You cannot download files in this forum