Любовь по приказу [1-8 серии из 8] (2016) WEB-DLRip от Files-x

Reply to topic
 
Author Message

bond74 ®

Gender: Male

Longevity: 10 months 8 days

Posts: 636

Post 02-Dec-2018 21:17

[Quote]

Любовь по приказу Год выпуска: 2016
Жанр: Мелодрама
Выпущено: Россия, Феникс-Фильм
Режиссер: Николай Борц
В ролях: Александр Мохов, Артём Быстров, Полина Сыркина, Валерий Панков, Марина Куделинская, Андрей Дудников, Юлия Шиферштейн, Стасс Классен, Сергей Барковский, Ёла Санько, Владимир Гусев (II), Евгения Дмитриева, Игорь Ветров (II)
О фильме: Действия сериала «Любовь по приказу» переносят своего зрителя в 1988 год. Главная героиня – талантливая и молодая актриса. Каждый день с большим нетерпением ее возвращения домой ожидают сын и любимый супруг. Варвара по-настоящему счастлива и искренне верит, что так будет всегда. Случайно на один из ее спектаклей попадает известный режиссер, который приглашает актрису к себе в театр. Героиня принимает приглашение. В один момент весь мир, в котором жила Варвара, рушится. Происходит это после того, как ее супруг на глазах жены погибает. После его похорон выясняется, что мужчина в ближайшее время планировал покинуть страну вместе со всей своей семьей и переехать жить за границу, прихватив с собой ценные документы. Варя даже предположить не могла, что ее любимый был на это способен и не догадывалась о переезде. Однако КГБ было известно об этих планах и теперь Варя находится под подозрением...

Качество: WEB-DLRip
Видео: XviD, 1496 Кбит/с, 720x400, 25 кадр/с
Аудио: AC3, 2 ch, 192 Кбит/с
Продолжительность: 8 х ~ 00:50:00
Перевод: Не требуется
Субтитры: нет

Скриншоты

MediaInfo

General
Complete name : H:\love.po.prikazzu.2018.WEB-DLRip.Files-x\01.love.po.prikazzu.2018.WEB-DLRip.Files-x.avi
Format : AVI
Format/Info : Audio Video Interleave
File size : 614 MiB
Duration : 50mn 34s
Overall bit rate : 1 697 Kbps
Writing application : VirtualDubMod 1.5.10.3 | www.virtualdub-fr.org || (build 2550/release)
Writing library : VirtualDubMod build 2550/release
Video
ID : 0
Format : MPEG-4 Visual
Format profile : Advanced Simple@L5
Format settings, BVOP : 1
Format settings, QPel : No
Format settings, GMC : No warppoints
Format settings, Matrix : Custom
Codec ID : XVID
Codec ID/Hint : XviD
Duration : 50mn 34s
Bit rate : 1 496 Kbps
Width : 720 pixels
Height : 400 pixels
Display aspect ratio : 16:9
Frame rate : 25.000 fps
Color space : YUV
Chroma subsampling : 4:2:0
Bit depth : 8 bits
Scan type : Progressive
Compression mode : Lossy
Bits/(Pixel*Frame) : 0.208
Stream size : 541 MiB (88%)
Writing library : XviD 73
Audio
ID : 1
Format : AC-3
Format/Info : Audio Coding 3
Mode extension : CM (complete main)
Codec ID : 2000
Duration : 50mn 34s
Bit rate mode : Constant
Bit rate : 192 Kbps
Channel(s) : 2 channels
Channel positions : Front: L R
Sampling rate : 48.0 KHz
Bit depth : 16 bits
Compression mode : Lossy
Stream size : 69.4 MiB (11%)
Alignment : Split accross interleaves
Interleave, duration : 40 ms (1.00 video frame)
Interleave, preload duration : 500 ms
Релиз от:
[Profile] [PM]
Display posts:    
Reply to topic

Current time is: 23-Sep 04:32

All times are UTC + 3



You cannot post new topics in this forum
You cannot reply to topics in this forum
You cannot edit your posts in this forum
You cannot delete your posts in this forum
You cannot vote in polls in this forum
You cannot attach files in this forum
You cannot download files in this forum