Пришелец (2018) BDRip 1080p | Лицензия

Reply to topic
 
Author Message

Monk ®

Gender: Male

Longevity: 1 year 3 months

Posts: 10521

Location: Казань

Post 03-Dec-2018 07:34

[Quote]

Пришелец Год выпуска: 2018
Жанр: Приключения, фантастика, драма
Выпущено: Россия, Кинокомпания «Союз Маринс Групп»
Режиссер: Александр Куликов
В ролях: Андрей Смоляков, Юрий Цурило, Григорий Сиятвинда, Максим Виторган, Александр Куликов, Анна Банщикова, Евгения Шипова
О фильме: В результате цепи трагических случайностей на далекой планете в одиночестве оказывается космонавт. Его жизнь находится в постоянной опасности. Нечто необъяснимое, вступившее с ним в контакт, навсегда изменит его. С этой минуты он станет потерянным и для себя и для людей.
И сколько раз ему придется умереть, чтобы доказать, что он жив…
Качество: BDRip 1080p
Видео: MPEG-4 AVC, 7396 Кбит/с, 1920x804
Аудио: Русский (AC3, 6 ch, 640 Кбит/с)
Продолжительность: 01:30:22
Перевод: Не требуется [Лицензия]

Скриншоты


MediaInfo

General
Unique ID : 144909404016736296582246712334214143755 (0x6D04893A0AFA194C42B328F3E8E29F0B)
Complete name : H:\Prishelets\prishelets 1080p.mkv
Format : Matroska
Format version : Version 4 / Version 2
File size : 5.07 GiB
Duration : 1 h 30 min
Overall bit rate mode : Variable
Overall bit rate : 8 038 kb/s
Movie name : Prishelets
Encoded date : UTC 2019-11-22 17:29:09
Writing application : mkvmerge v27.0.0 ('Metropolis') 64-bit
Writing library : libebml v1.3.6 + libmatroska v1.4.9
Video
ID : 1
Format : AVC
Format/Info : Advanced Video Codec
Format profile : High@L4.1
Format settings : CABAC / 5 Ref Frames
Format settings, CABAC : Yes
Format settings, ReFrames : 5 frames
Codec ID : V_MPEG4/ISO/AVC
Duration : 1 h 30 min
Bit rate mode : Variable
Bit rate : 7 396 kb/s
Maximum bit rate : 30.0 Mb/s
Width : 1 920 pixels
Height : 804 pixels
Display aspect ratio : 2.40:1
Frame rate mode : Constant
Frame rate : 24.000 FPS
Color space : YUV
Chroma subsampling : 4:2:0
Bit depth : 8 bits
Scan type : Progressive
Bits/(Pixel*Frame) : 0.200
Stream size : 4.67 GiB (92%)
Title : Prishelets (2018) - Encoded by Immortel
Writing library : x264 core 158 r2984+49 6932f4a t_mod_New [0-bit@all X86_64]
Encoding settings : cabac=1 / ref=5 / deblock=1:0:0 / analyse=0x3:0x113 / me=umh / subme=10 / psy=1 / fade_compensate=0.00 / psy_rd=1.00:0.00 / mixed_ref=1 / me_range=24 / chroma_me=1 / trellis=2 / 8x8dct=1 / cqm=0 / deadzone=21,11 / fast_pskip=0 / chroma_qp_offset=-2 / threads=5 / lookahead_threads=1 / sliced_threads=0 / nr=0 / decimate=0 / interlaced=0 / bluray_compat=0 / constrained_intra=0 / fgo=0 / bframes=6 / b_pyramid=2 / b_adapt=2 / b_bias=0 / direct=1 / weightb=1 / open_gop=0 / weightp=2 / keyint=240 / keyint_min=24 / scenecut=40 / intra_refresh=0 / rc_lookahead=60 / rc=crf / mbtree=0 / crf=16.0000 / qcomp=0.60 / qpmin=0:0:0 / qpmax=69:69:69 / qpstep=4 / vbv_maxrate=30000 / vbv_bufsize=30000 / crf_max=0.0 / nal_hrd=vbr / filler=0 / ip_ratio=1.40 / pb_ratio=1.30 / aq=2:1.00 / aq-sensitivity=10.00 / aq-factor=1.00:1.00:1.00 / aq2=0 / aq3=0
Default : Yes
Forced : Yes
Color range : Limited
Color primaries : BT.709
Transfer characteristics : BT.709
Matrix coefficients : BT.709
Audio
ID : 2
Format : AC-3
Format/Info : Audio Coding 3
Codec ID : A_AC3
Duration : 1 h 30 min
Bit rate mode : Constant
Bit rate : 640 kb/s
Channel(s) : 6 channels
Channel positions : Front: L C R, Side: L R, LFE
Sampling rate : 48.0 kHz
Frame rate : 31.250 FPS (1536 SPF)
Bit depth : 16 bits
Compression mode : Lossy
Stream size : 414 MiB (8%)
Language : Russian
Service kind : Complete Main
Default : Yes
Forced : Yes
Menu
00:00:00.000 : en:00:00:00.000
00:07:42.792 : en:00:07:42.792
00:12:11.833 : en:00:12:11.833
00:16:33.167 : en:00:16:33.167
00:21:52.167 : en:00:21:52.167
00:27:42.208 : en:00:27:42.208
00:35:04.000 : en:00:35:04.000
00:40:52.250 : en:00:40:52.250
00:45:05.292 : en:00:45:05.292
00:48:09.458 : en:00:48:09.458
00:54:05.875 : en:00:54:05.875
01:01:59.458 : en:01:01:59.458
01:09:41.583 : en:01:09:41.583
01:13:54.542 : en:01:13:54.542
01:18:56.000 : en:01:18:56.000
01:25:32.375 : en:01:25:32.375
[Profile] [PM]
Display posts:    
Reply to topic

Current time is: 24-Feb 04:25

All times are UTC + 3



You cannot post new topics in this forum
You cannot reply to topics in this forum
You cannot edit your posts in this forum
You cannot delete your posts in this forum
You cannot vote in polls in this forum
You cannot attach files in this forum
You cannot download files in this forum