Пришелец (2018) BDRip AVC | Лицензия

Reply to topic
 
Author Message

Monk ®

Gender: Male

Longevity: 2 years 11 months

Posts: 14033

Location: Казань

Post 03-Dec-2018 11:03

[Quote]

Пришелец Год выпуска: 2018
Жанр: Приключения, фантастика, драма
Выпущено: Россия, Кинокомпания «Союз Маринс Групп»
Режиссер: Александр Куликов
В ролях: Андрей Смоляков, Юрий Цурило, Григорий Сиятвинда, Максим Виторган, Александр Куликов, Анна Банщикова, Евгения Шипова
О фильме: В результате цепи трагических случайностей на далекой планете в одиночестве оказывается космонавт. Его жизнь находится в постоянной опасности. Нечто необъяснимое, вступившее с ним в контакт, навсегда изменит его. С этой минуты он станет потерянным и для себя и для людей.
И сколько раз ему придется умереть, чтобы доказать, что он жив…
Качество: BDRip AVC
Видео: MPEG-4 AVC, 1796 Кбит/с, 1024х428
Аудио: Русский (AC3, 6 ch, 448 Кбит/с)
Продолжительность: 01:30:22
Перевод: Не требуется [Лицензия]

Скриншоты



[/url]

MediaInfo

Общее
Уникальный идентификатор : 15295881773982959170414709182128607843 (0xB81E132472DEA7057FAF0644DA65263)
Полное имя : F:\OlLanDGroup\Prishelets.2018.BDRip(AVC).OlLanDGroup.mkv
Формат : Matroska
Версия формата : Version 4 / Version 2
Размер файла : 1,42 Гбайт
Продолжительность : 1 ч. 30 м.
Общий поток : 2243 Кбит/сек
Название фильма : Prishelets.2018 #TorpedoUK#
Дата кодирования : UTC 2019-11-22 23:07:32
Программа кодирования : mkvmerge v29.0.0 ('Like It Or Not') 64-bit
Библиотека кодирования : libebml v1.3.6 + libmatroska v1.4.9
Видео
Идентификатор : 1
Формат : AVC
Формат/Информация : Advanced Video Codec
Профиль формата : High@L4.1
Параметр CABAC формата : Да
Параметр ReFrames формата : 10 кадров
Идентификатор кодека : V_MPEG4/ISO/AVC
Продолжительность : 1 ч. 30 м.
Битрейт : 1796 Кбит/сек
Ширина : 1024 пикселя
Высота : 428 пикселей
Соотношение сторон : 2,40:1
Режим частоты кадров : Постоянный
Частота кадров : 24,000 кадра/сек
Цветовое пространство : YUV
Субдискретизация насыщенности : 4:2:0
Битовая глубина : 8 бит
Тип развёртки : Прогрессивная
Бит/(Пиксели*Кадры) : 0.171
Размер потока : 1,13 Гбайт (80%)
Библиотека кодирования : x264 core 146 r2538 121396c
Настройки программы : cabac=1 / ref=10 / deblock=1:-3:-3 / analyse=0x3:0x113 / me=umh / subme=11 / psy=1 / psy_rd=1.00:0.03 / mixed_ref=1 / me_range=48 / chroma_me=1 / trellis=2 / 8x8dct=1 / cqm=0 / deadzone=21,11 / fast_pskip=1 / chroma_qp_offset=-6 / threads=6 / lookahead_threads=1 / sliced_threads=0 / nr=0 / decimate=1 / interlaced=0 / bluray_compat=0 / constrained_intra=0 / bframes=11 / b_pyramid=2 / b_adapt=2 / b_bias=0 / direct=3 / weightb=1 / open_gop=0 / weightp=2 / keyint=240 / keyint_min=23 / scenecut=40 / intra_refresh=0 / rc_lookahead=40 / rc=2pass / mbtree=0 / bitrate=1796 / ratetol=1.0 / qcomp=0.60 / qpmin=0 / qpmax=69 / qpstep=4 / cplxblur=20.0 / qblur=0.5 / vbv_maxrate=50000 / vbv_bufsize=62500 / nal_hrd=none / filler=0 / ip_ratio=1.40 / pb_ratio=1.30 / aq=1:1.00
Язык : English
Default : Да
Forced : Нет
Аудио
Идентификатор : 2
Формат : AC-3
Формат/Информация : Audio Coding 3
Расширение режима : CM (complete main)
Параметр Endianness формата : Big
Идентификатор кодека : A_AC3
Продолжительность : 1 ч. 30 м.
Вид битрейта : Постоянный
Битрейт : 448 Кбит/сек
Каналы : 6 каналов
Расположение каналов : Front: L C R, Side: L R, LFE
Частота : 48,0 КГц
Частота кадров : 31,250 кадров/сек (1536 spf)
Битовая глубина : 16 бит
Метод сжатия : С потерями
Размер потока : 290 Мбайт (20%)
Заголовок : [License]
Язык : Russian
Default : Да
Forced : Нет
Меню
00:00:00.000 : :Глава 01
00:07:42.791 : :Глава 02
00:12:11.833 : :Глава 03
00:16:33.166 : :Глава 04
00:21:52.166 : :Глава 05
00:27:42.208 : :Глава 06
00:35:04.000 : :Глава 07
00:40:52.250 : :Глава 08
00:45:05.291 : :Глава 09
00:48:09.458 : :Глава 10
00:54:05.875 : :Глава 11
01:01:59.458 : :Глава 12
01:09:41.583 : :Глава 13
01:13:54.541 : :Глава 14
01:18:56.000 : :Глава 15
01:25:32.375 : :Глава 16
[Profile] [PM]
Display posts:    
Reply to topic

Current time is: 19-Oct 06:09

All times are UTC + 3



You cannot post new topics in this forum
You cannot reply to topics in this forum
You cannot edit your posts in this forum
You cannot delete your posts in this forum
You cannot vote in polls in this forum
You cannot attach files in this forum
You cannot download files in this forum