Стальной алхимик / Fullmetal Alchemist (2017) HDRip AVC

Reply to topic
 
Author Message

Monk ®

Gender: Male

Longevity: 1 year

Posts: 9618

Location: Казань

Post 03-Dec-2018 07:56

[Quote]

Стальной алхимик / Fullmetal Alchemist Год выпуска: 2017
Жанр: Боевик, фэнтези, приключения
Выпущено: Япония, Square Enix Co. Ltd.
Режиссер: Ясухиро Ириэ, Киёмицу Сато, Хироши Икетоми
В ролях: Рёске Ямада, Цубаса Хонда, Дин Фудзиока, Рюта Сато, Мисако Рэмбуцу, Ё Ойзуми, Кэндзиро Исимару, Ясуко Мацуюки, Синдзи Утияма, Каната Хонго
О фильме: В стране Аместрис алхимия широко распространена как точная наука. Два брата Эдвард и Альфонс Элрики ещё детьми пытались при помощи алхимии воскресить мёртвую маму, но поплатились за это. Старший лишился руки и ноги, младший - всего тела, хотя и был в самый последний момент чудом спасен - брат привязывает его душу к стальным рыцарским доспехам. Теперь два брата - первый со стальными протезами, второй - просто говорящий доспех - ищут философский камень, чтобы вернуть тело Альфонса.

Качество: HDRip AVC
Видео: MPEG-4 AVC, 1844 Кбит/с, 1024x436, 23.976 Кадр/с
Аудио: Русский (AC3, 6 ch, 384 Кбит/с)
Продолжительность: 02:13:47
Перевод: Профессиональный многоголосый [AlexFilm]
Субтитры: Русские, английские

Скриншоты



MediaInfo

Общее
Уникальный идентификатор : 126544779450395053968389378761005044656 (0x5F33A3544AAD91CCB65C7FDB910993B0)
Полное имя : F:\OlLanDGroup\Fullmetal.Alchemist.2017.BDRip(AVC).OlLanDGroup.mkv
Формат : Matroska
Версия формата : Version 4 / Version 2
Размер файла : 2,08 Гбайт
Продолжительность : 2 ч. 13 м.
Общий поток : 2230 Кбит/сек
Название фильма : Fullmetal.Alchemist.2017 #TorpedoUK#
Дата кодирования : UTC 2018-12-02 16:38:07
Программа кодирования : mkvmerge v25.0.0 ('Prog Noir') 64-bit
Библиотека кодирования : libebml v1.3.6 + libmatroska v1.4.9
Видео
Идентификатор : 1
Формат : AVC
Формат/Информация : Advanced Video Codec
Профиль формата : High@L4.1
Параметр CABAC формата : Да
Параметр ReFrames формата : 10 кадров
Идентификатор кодека : V_MPEG4/ISO/AVC
Продолжительность : 2 ч. 13 м.
Битрейт : 1844 Кбит/сек
Ширина : 1024 пикселя
Высота : 436 пикселей
Соотношение сторон : 2,35:1
Режим частоты кадров : Постоянный
Частота кадров : 23,976 (24000/1001) кадра/сек
Цветовое пространство : YUV
Субдискретизация насыщенности : 4:2:0
Битовая глубина : 8 бит
Тип развёртки : Прогрессивная
Бит/(Пиксели*Кадры) : 0.172
Размер потока : 1,72 Гбайт (83%)
Библиотека кодирования : x264 core 146 r2538 121396c
Настройки программы : cabac=1 / ref=10 / deblock=1:-3:-3 / analyse=0x3:0x113 / me=umh / subme=10 / psy=1 / psy_rd=0.97:0.05 / mixed_ref=1 / me_range=48 / chroma_me=1 / trellis=2 / 8x8dct=1 / cqm=0 / deadzone=21,11 / fast_pskip=1 / chroma_qp_offset=-3 / threads=6 / lookahead_threads=1 / sliced_threads=0 / nr=0 / decimate=1 / interlaced=0 / bluray_compat=0 / constrained_intra=0 / bframes=11 / b_pyramid=2 / b_adapt=2 / b_bias=0 / direct=3 / weightb=1 / open_gop=0 / weightp=2 / keyint=240 / keyint_min=23 / scenecut=40 / intra_refresh=0 / rc_lookahead=40 / rc=2pass / mbtree=0 / bitrate=1844 / ratetol=1.0 / qcomp=0.60 / qpmin=0 / qpmax=69 / qpstep=4 / cplxblur=20.0 / qblur=0.5 / vbv_maxrate=50000 / vbv_bufsize=62500 / nal_hrd=none / filler=0 / ip_ratio=1.40 / pb_ratio=1.30 / aq=1:1.00
Язык : English
Default : Да
Forced : Нет
Аудио
Идентификатор : 2
Формат : AC-3
Формат/Информация : Audio Coding 3
Расширение режима : CM (complete main)
Параметр Endianness формата : Big
Идентификатор кодека : A_AC3
Продолжительность : 2 ч. 13 м.
Вид битрейта : Постоянный
Битрейт : 384 Кбит/сек
Каналы : 6 каналов
Расположение каналов : Front: L C R, Side: L R, LFE
Частота : 48,0 КГц
Частота кадров : 31,250 кадров/сек (1536 spf)
Битовая глубина : 16 бит
Метод сжатия : С потерями
Размер потока : 367 Мбайт (17%)
Заголовок : MVO [AlexFilm]
Язык : Russian
Default : Да
Forced : Нет
Текст #1
Идентификатор : 3
Формат : UTF-8
Идентификатор кодека : S_TEXT/UTF8
Идентификатор кодека/Информация : UTF-8 Plain Text
Продолжительность : 1 ч. 18 м.
Битрейт : 0 бит/сек
Count of elements : 9
Размер потока : 154 байт (0%)
Заголовок : Forced
Язык : Russian
Default : Да
Forced : Нет
Текст #2
Идентификатор : 4
Формат : UTF-8
Идентификатор кодека : S_TEXT/UTF8
Идентификатор кодека/Информация : UTF-8 Plain Text
Продолжительность : 2 ч. 6 м.
Битрейт : 49 бит/сек
Count of elements : 1211
Размер потока : 45,6 Кбайт (0%)
Заголовок : Full
Язык : Russian
Default : Нет
Forced : Нет
Текст #3
Идентификатор : 5
Формат : UTF-8
Идентификатор кодека : S_TEXT/UTF8
Идентификатор кодека/Информация : UTF-8 Plain Text
Продолжительность : 2 ч. 6 м.
Битрейт : 27 бит/сек
Count of elements : 1220
Размер потока : 25,3 Кбайт (0%)
Заголовок : Full
Язык : English
Default : Нет
Forced : Нет
Меню
00:00:00.000 : en:00:00:00.000
00:06:42.276 : en:00:06:42.276
00:19:11.567 : en:00:19:11.567
00:26:41.433 : en:00:26:41.433
00:35:23.162 : en:00:35:23.162
00:47:11.328 : en:00:47:11.328
00:55:32.370 : en:00:55:32.370
01:04:24.819 : en:01:04:24.819
01:17:54.586 : en:01:17:54.586
01:25:32.585 : en:01:25:32.585
01:33:52.626 : en:01:33:52.626
01:49:45.203 : en:01:49:45.203
01:59:13.312 : en:01:59:13.312
02:08:04.676 : en:02:08:04.676
02:13:46.518 : en:02:13:46.518
[Profile] [PM]
Display posts:    
Reply to topic

Current time is: 10-Dec 09:16

All times are UTC + 3



You cannot post new topics in this forum
You cannot reply to topics in this forum
You cannot edit your posts in this forum
You cannot delete your posts in this forum
You cannot vote in polls in this forum
You cannot attach files in this forum
You cannot download files in this forum