Стальной алхимик / Fullmetal Alchemist (2017) BDRip 1080p

Reply to topic
 
Author Message

Monk ®

Gender: Male

Longevity: 6 months 9 days

Posts: 6383

Location: Казань

Post 03-Dec-2018 07:59

[Quote]

Стальной алхимик / Fullmetal Alchemist Год выпуска: 2017
Жанр: Боевик, фэнтези, приключения
Выпущено: Япония, Square Enix Co. Ltd.
Режиссер: Ясухиро Ириэ, Киёмицу Сато, Хироши Икетоми
В ролях: Рёске Ямада, Цубаса Хонда, Дин Фудзиока, Рюта Сато, Мисако Рэмбуцу, Ё Ойзуми, Кэндзиро Исимару, Ясуко Мацуюки, Синдзи Утияма, Каната Хонго
О фильме: В стране Аместрис алхимия широко распространена как точная наука. Два брата Эдвард и Альфонс Элрики ещё детьми пытались при помощи алхимии воскресить мёртвую маму, но поплатились за это. Старший лишился руки и ноги, младший - всего тела, хотя и был в самый последний момент чудом спасен - брат привязывает его душу к стальным рыцарским доспехам. Теперь два брата - первый со стальными протезами, второй - просто говорящий доспех - ищут философский камень, чтобы вернуть тело Альфонса.

Качество: BDRip 1080p
Видео: MPEG-4 AVC, 12.1 Mбит/с, 1920x816, 23.976 Кадр/с
Аудио: Русский (AC3, 6 ch, 384 Кбит/с), японский (AC3, 6 ch, 448 Кбит/с)
Продолжительность: 02:13:47
Перевод: Профессиональный многоголосый [AlexFilm], любительский многоголосый [AniDUB], любительский одноголосый [PiratVoice]
Субтитры: Русские, английские, японские

Скриншоты



MediaInfo

General
Unique ID : 174760611135090353165044946028232098513 (0x8379AB5E5A2181E7AFB5F21F3EEAC2D1)
Complete name : Fullmetal.Alchemist.2017.BDRip.1080p.mkv
Format : Matroska
Format version : Version 4 / Version 2
File size : 12.1 GiB
Duration : 2 h 13 min
Overall bit rate : 12.9 Mb/s
Encoded date : UTC 2018-05-01 06:57:52
Writing application : mkvmerge v7.1.0 ('Good Love') 64bit built on Jul 27 2014 13:06:55
Writing library : libebml v1.3.0 + libmatroska v1.4.1
Video
ID : 1
Format : AVC
Format/Info : Advanced Video Codec
Format profile : High@L4.1
Format settings : CABAC / 5 Ref Frames
Format settings, CABAC : Yes
Format settings, ReFrames : 5 frames
Codec ID : V_MPEG4/ISO/AVC
Duration : 2 h 13 min
Bit rate : 11.3 Mb/s
Width : 1 920 pixels
Height : 816 pixels
Display aspect ratio : 2.35:1
Frame rate mode : Constant
Frame rate : 23.976 (24000/1001) FPS
Color space : YUV
Chroma subsampling : 4:2:0
Bit depth : 8 bits
Scan type : Progressive
Bits/(Pixel*Frame) : 0.302
Stream size : 10.6 GiB (88%)
Writing library : x264 core 129 r2245+704+36 8e61944 tMod+MixAQ [8-bit@4:2:0 X86_64]
Encoding settings : cabac=1 / ref=5 / deblock=1:-3:-3 / analyse=0x3:0x133 / me=umh / subme=11 / psy=1 / fade_compensate=0.00 / psy_rd=1.05:0.10 / mixed_ref=1 / me_range=64 / chroma_me=1 / trellis=2 / 8x8dct=1 / cqm=0 / deadzone=21,11 / fast_pskip=0 / chroma_qp_offset=-3 / threads=18 / lookahead_threads=3 / sliced_threads=0 / nr=0 / decimate=0 / interlaced=0 / bluray_compat=0 / constrained_intra=0 / fgo=0 / bframes=10 / b_pyramid=2 / b_adapt=2 / b_bias=0 / direct=3 / weightb=1 / open_gop=0 / weightp=2 / keyint=250 / keyint_min=23 / scenecut=40 / intra_refresh=0 / rc=2pass / mbtree=0 / bitrate=11332 / ratetol=1.0 / qcomp=0.70 / qpmin=0 / qpmax=69 / qpstep=4 / cplxblur=20.0 / qblur=0.5 / ip_ratio=1.40 / pb_ratio=1.30 / aq=1 / aq-strength=0.90 / aq-sensitivity=10.00 / aq-ifactor=1.00 / aq-pfactor=1.00 / aq-bfactor=1.00 / aq2=0
Language : Japanese
Default : Yes
Forced : No
Audio #1
ID : 2
Format : AC-3
Format/Info : Audio Coding 3
Codec ID : A_AC3
Duration : 2 h 13 min
Bit rate mode : Constant
Bit rate : 384 kb/s
Channel(s) : 6 channels
Channel positions : Front: L C R, Side: L R, LFE
Sampling rate : 48.0 kHz
Frame rate : 31.250 FPS (1536 SPF)
Bit depth : 16 bits
Compression mode : Lossy
Stream size : 367 MiB (3%)
Title : MVO (AlexFilm)
Language : Russian
Service kind : Complete Main
Default : Yes
Forced : No
Audio #2
ID : 3
Format : AC-3
Format/Info : Audio Coding 3
Codec ID : A_AC3
Duration : 2 h 13 min
Bit rate mode : Constant
Bit rate : 384 kb/s
Channel(s) : 6 channels
Channel positions : Front: L C R, Side: L R, LFE
Sampling rate : 48.0 kHz
Frame rate : 31.250 FPS (1536 SPF)
Bit depth : 16 bits
Compression mode : Lossy
Stream size : 367 MiB (3%)
Title : MVO (AniDUB)
Language : Russian
Service kind : Complete Main
Default : No
Forced : No
Audio #3
ID : 4
Format : AC-3
Format/Info : Audio Coding 3
Codec ID : A_AC3
Duration : 2 h 13 min
Bit rate mode : Constant
Bit rate : 384 kb/s
Channel(s) : 6 channels
Channel positions : Front: L C R, Side: L R, LFE
Sampling rate : 48.0 kHz
Frame rate : 31.250 FPS (1536 SPF)
Bit depth : 16 bits
Compression mode : Lossy
Stream size : 367 MiB (3%)
Title : VO (PiratVoice, Cleric)
Language : Russian
Service kind : Complete Main
Default : No
Forced : No
Audio #4
ID : 5
Format : AC-3
Format/Info : Audio Coding 3
Codec ID : A_AC3
Duration : 2 h 13 min
Bit rate mode : Constant
Bit rate : 448 kb/s
Channel(s) : 6 channels
Channel positions : Front: L C R, Side: L R, LFE
Sampling rate : 48.0 kHz
Frame rate : 31.250 FPS (1536 SPF)
Bit depth : 16 bits
Compression mode : Lossy
Stream size : 429 MiB (3%)
Language : Japanese
Service kind : Complete Main
Default : No
Forced : No
Text #1
ID : 6
Format : UTF-8
Codec ID : S_TEXT/UTF8
Codec ID/Info : UTF-8 Plain Text
Duration : 1 h 18 min
Bit rate : 0 b/s
Count of elements : 9
Stream size : 154 Bytes (0%)
Title : Forced
Language : Russian
Default : Yes
Forced : No
Text #2
ID : 7
Format : UTF-8
Codec ID : S_TEXT/UTF8
Codec ID/Info : UTF-8 Plain Text
Duration : 2 h 6 min
Bit rate : 49 b/s
Count of elements : 1211
Stream size : 45.6 KiB (0%)
Title : Full
Language : Russian
Default : No
Forced : No
Text #3
ID : 8
Format : ASS
Codec ID : S_TEXT/ASS
Codec ID/Info : Advanced Sub Station Alpha
Duration : 2 h 6 min
Bit rate : 77 b/s
Count of elements : 1211
Compression mode : Lossless
Stream size : 71.9 KiB (0%)
Title : Full-ass
Language : Russian
Default : No
Forced : No
Text #4
ID : 9
Format : UTF-8
Codec ID : S_TEXT/UTF8
Codec ID/Info : UTF-8 Plain Text
Duration : 2 h 6 min
Bit rate : 27 b/s
Count of elements : 1220
Stream size : 25.3 KiB (0%)
Language : English
Default : No
Forced : No
Text #5
ID : 10
Format : UTF-8
Codec ID : S_TEXT/UTF8
Codec ID/Info : UTF-8 Plain Text
Duration : 2 h 6 min
Bit rate : 26 b/s
Count of elements : 1228
Stream size : 24.7 KiB (0%)
Title : Simplified
Language : Chinese
Default : No
Forced : No
Text #6
ID : 11
Format : UTF-8
Codec ID : S_TEXT/UTF8
Codec ID/Info : UTF-8 Plain Text
Duration : 2 h 6 min
Bit rate : 32 b/s
Count of elements : 1228
Stream size : 29.8 KiB (0%)
Title : Traditional
Language : Chinese
Default : No
Forced : No
Menu
00:00:00.000 : en:00:00:00.000
00:06:42.276 : en:00:06:42.276
00:19:11.567 : en:00:19:11.567
00:26:41.433 : en:00:26:41.433
00:35:23.162 : en:00:35:23.162
00:47:11.328 : en:00:47:11.328
00:55:32.370 : en:00:55:32.370
01:04:24.819 : en:01:04:24.819
01:17:54.586 : en:01:17:54.586
01:25:32.585 : en:01:25:32.585
01:33:52.626 : en:01:33:52.626
01:49:45.203 : en:01:49:45.203
01:59:13.312 : en:01:59:13.312
02:08:04.676 : en:02:08:04.676
02:13:46.518 : en:02:13:46.518
[Profile] [PM]
Display posts:    
Reply to topic

Current time is: 24-May 13:00

All times are UTC + 3



You cannot post new topics in this forum
You cannot reply to topics in this forum
You cannot edit your posts in this forum
You cannot delete your posts in this forum
You cannot vote in polls in this forum
You cannot attach files in this forum
You cannot download files in this forum