Прорыв (Ярость) / Changgwol (Rampant) (2018) BDRip 1080p

Reply to topic
 
Author Message

Monk ®

Gender: Male

Longevity: 9 months 10 days

Posts: 7980

Location: Казань

Post 03-Dec-2018 10:09

[Quote]

Прорыв (Ярость) / Changgwol (Rampant) Год выпуска: 2018
Жанр: Ужасы, боевик, триллер
Выпущено: Южная Корея, Liyang Film, Next Entertainment World
Режиссер: Сон Хун Ким (III)
В ролях: Хён Бин, Дон Гон Чан, У Джин Чо, Ый Сон Ким, Ман Сик Чон, Сон Бин Ли, Даль Хван Чо, Чон Хван Кон, Чжин У Пак, Чжи Хе Со, Чжи Ын Хан, Ю Ан Чон, Чжун Сок Хо, Сон Тэ Хо, Су Чжан Пэк, Сон Тэк Пак, Тхэ У Ким
О фильме: Чосонский принц Ли Чхон оказался пленником династии Цин. Однако нельзя сказать, что парень сильно страдает: алкоголь, азартные игры и всяческие интрижки не оставляют Ли Чхуну времени на тоску по родине. Пройдет 10 лет, прежде чем старший брат принца Ли Ён сможет вернуть трон и освободить брата. Вернувшегося Ли Чхона ожидает сюрприз — страну накрывает эпидемия зомби.
Качество: BDRip 1080p
Видео: MPEG-4 AVC, 15.2 Mбит/с, 1920x806, 24 кадр/с
Аудио: Русский (AC3, 2 ch, 256 Кбит/с), корейский (DTS, 6 ch, 1509 Кбит/с)
Продолжительность: 02:01:35
Перевод: Любительский двухголосый [SOFTBOX]
Субтитры: Английские

Скриншоты



MediaInfo

General
Unique ID : Rampant.2018.KOREAN.BDRip.1080p.mkv
Format : Matroska
Format version : Version 4 / Version 2
File size : 14.4 GiB
Duration : 2 h 1 min
Overall bit rate : 16.9 Mb/s
Encoded date : UTC 2019-02-22 12:47:58
Writing application : mkvmerge v7.1.0 ('Good Love') 64bit built on Jul 27 2014 13:06:55
Writing library : libebml v1.3.0 + libmatroska v1.4.1
Video
ID : 1
Format : AVC
Format/Info : Advanced Video Codec
Format profile : High@L4.1
Format settings, CABAC : Yes
Format settings, RefFrames : 5 frames
Codec ID : V_MPEG4/ISO/AVC
Duration : 2 h 1 min
Bit rate : 15.2 Mb/s
Width : 1 920 pixels
Height : 806 pixels
Display aspect ratio : 2.40:1
Frame rate mode : Constant
Frame rate : 24.000 FPS
Color space : YUV
Chroma subsampling : 4:2:0
Bit depth : 8 bits
Scan type : Progressive
Bits/(Pixel*Frame) : 0.408
Stream size : 12.9 GiB (90%)
Writing library : x264 core 157 r2938 2b00a84 TnP@MTeam Mod
Encoding settings : cabac=1 / ref=5 / deblock=1:-3:-3 / analyse=0x3:0x133 / me=umh / subme=10 / psy=1 / psy_rd=1.05:0.00 / mixed_ref=1 / me_range=32 / chroma_me=1 / trellis=2 / 8x8dct=1 / cqm=0 / deadzone=21,11 / fast_pskip=0 / chroma_qp_offset=-2 / threads=12 / lookahead_threads=2 / sliced_threads=0 / nr=0 / decimate=0 / interlaced=0 / bluray_compat=0 / constrained_intra=0 / bframes=8 / b_pyramid=2 / b_adapt=2 / b_bias=0 / direct=3 / weightb=1 / open_gop=0 / weightp=2 / keyint=250 / keyint_min=24 / scenecut=40 / intra_refresh=0 / rc_lookahead=250 / rc=crf / mbtree=0 / crf=17.5 / qcomp=0.60 / qpmin=0 / qpmax=69 / qpstep=4 / vbv_maxrate=62500 / vbv_bufsize=78125 / crf_max=0.0 / nal_hrd=none / filler=0 / ip_ratio=1.30 / pb_ratio=1.20 / aq=3:0.80
Language : English
Default : Yes
Forced : No
Color range : Limited
Color primaries : BT.709
Matrix coefficients : BT.709
Audio #1
ID : 2
Format : AC-3
Format/Info : Audio Coding 3
Format settings, Endianness : Big
Codec ID : A_AC3
Duration : 2 h 1 min
Bit rate mode : Constant
Bit rate : 256 kb/s
Channel(s) : 2 channels
Channel positions : Front: L R
Sampling rate : 48.0 kHz
Frame rate : 31.250 FPS (1536 SPF)
Bit depth : 16 bits
Compression mode : Lossy
Stream size : 223 MiB (2%)
Title : SOFTBOX
Language : Russian
Service kind : Complete Main
Default : Yes
Forced : No
Audio #2
ID : 3
Format : DTS
Format/Info : Digital Theater Systems
Mode : 16
Format settings, Endianness : Big
Codec ID : A_DTS
Duration : 2 h 1 min
Bit rate mode : Constant
Bit rate : 1 509 kb/s
Channel(s) : 6 channels
Channel positions : Front: L C R, Side: L R, LFE
Sampling rate : 48.0 kHz
Frame rate : 93.750 FPS (512 SPF)
Bit depth : 24 bits
Compression mode : Lossy
Stream size : 1.28 GiB (9%)
Language : Korean
Default : No
Forced : No
Text
ID : 4
Format : UTF-8
Codec ID : S_TEXT/UTF8
Codec ID/Info : UTF-8 Plain Text
Duration : 1 h 55 min
Bit rate : 32 b/s
Count of elements : 1042
Stream size : 27.8 KiB (0%)
Language : English
Default : No
Forced : No
Menu
00:00:00.000 : en:Chapter 01
00:08:16.167 : en:Chapter 02
00:16:08.167 : en:Chapter 03
00:26:33.917 : en:Chapter 04
00:35:54.833 : en:Chapter 05
00:46:54.000 : en:Chapter 06
00:53:57.167 : en:Chapter 07
01:02:12.083 : en:Chapter 08
01:12:42.542 : en:Chapter 09
01:20:40.083 : en:Chapter 10
01:27:05.208 : en:Chapter 11
01:41:45.375 : en:Chapter 12
01:50:28.375 : en:Chapter 13
01:57:48.792 : en:Chapter 14
[Profile] [PM]
Display posts:    
Reply to topic

Current time is: 24-Aug 15:42

All times are UTC + 3



You cannot post new topics in this forum
You cannot reply to topics in this forum
You cannot edit your posts in this forum
You cannot delete your posts in this forum
You cannot vote in polls in this forum
You cannot attach files in this forum
You cannot download files in this forum