Прорыв (Ярость) / Changgwol (Rampant) (2018) HDRip

Reply to topic
 
Author Message

Monk ®

Gender: Male

Longevity: 1 year

Posts: 9115

Location: Казань

Post 03-Dec-2018 10:11

[Quote]

Прорыв (Ярость) / Changgwol (Rampant) Год выпуска: 2018
Жанр: Ужасы, боевик, триллер
Выпущено: Южная Корея, Liyang Film, Next Entertainment World
Режиссер: Сон Хун Ким (III)
В ролях: Хён Бин, Дон Гон Чан, У Джин Чо, Ый Сон Ким, Ман Сик Чон, Сон Бин Ли, Даль Хван Чо, Чон Хван Кон, Чжин У Пак, Чжи Хе Со, Чжи Ын Хан, Ю Ан Чон, Чжун Сок Хо, Сон Тэ Хо, Су Чжан Пэк, Сон Тэк Пак, Тхэ У Ким
О фильме: Чосонский принц Ли Чхон оказался пленником династии Цин. Однако нельзя сказать, что парень сильно страдает: алкоголь, азартные игры и всяческие интрижки не оставляют Ли Чхуну времени на тоску по родине. Пройдет 10 лет, прежде чем старший брат принца Ли Ён сможет вернуть трон и освободить брата. Вернувшегося Ли Чхона ожидает сюрприз — страну накрывает эпидемия зомби.
Качество: HDRip
Видео: XviD, 1517 Кбит/с, 720x304
Аудио: Русский (АС3, 2 ch, 192 Кбит/с), корейский (АС3, 6 ch, 448 Кбит/с)
Продолжительность: 02:01:35
Перевод: Профессиональный многоголосый [HDrezka Studio], любительский двухголосый [SOFTBOX]
Субтитры: Английские

Скриншоты



MediaInfo

Общее
Полное имя : C:\Proryv.2018.HDRip\Proryv.2018.HDRip.avi
Формат : AVI
Формат/Информация : Audio Video Interleave
Размер файла : 1,46 Гбайт
Продолжительность : 2 ч. 1 м.
Общий поток : 1718 Кбит/сек
Название фильма : Прорыв / Changgwol (2018) HDRip
Режиссёр : Ким Сон-хун / Kim Seong-hoon
Жанр : Ужасы, боевик, триллер
Программа кодирования : VirtualDubMod 1.5.10.2 (build 2542/release)
Формат оригинала/Имя : Художественный фильм
Авторское право : Liyang Film, Next Entertainment World
Примечание : vitolinform
Видео
Идентификатор : 0
Формат : MPEG-4 Visual
Профиль формата : Advanced Simple@L5
Настройки формата : BVOP2
Параметр BVOP формата : 2
Параметр QPel формата : Нет
Параметр GMC формата : Без точки перехода
Параметр матрицы формата : Default (MPEG)
Идентификатор кодека : XVID
Идентификатор кодека/Подсказка : XviD
Продолжительность : 2 ч. 1 м.
Битрейт : 1517 Кбит/сек
Ширина : 720 пикселей
Высота : 304 пикселя
Соотношение сторон : 2,35:1
Частота кадров : 24,000 кадра/сек
Цветовое пространство : YUV
Субдискретизация насыщенности : 4:2:0
Битовая глубина : 8 бит
Тип развёртки : Прогрессивная
Метод сжатия : С потерями
Бит/(Пиксели*Кадры) : 0.289
Размер потока : 1,29 Гбайт (88%)
Библиотека кодирования : XviD 67
Аудио
Идентификатор : 1
Формат : AC-3
Формат/Информация : Audio Coding 3
Идентификатор кодека : 2000
Продолжительность : 2 ч. 1 м.
Вид битрейта : Постоянный
Битрейт : 192 Кбит/сек
Каналы : 2 канала
Расположение каналов : Front: L R
Частота : 48,0 КГц
Частота кадров : 31,250 кадров/сек (1536 SPF)
Битовая глубина : 16 бит
Метод сжатия : С потерями
Размер потока : 167 Мбайт (11%)
Выравнивание : Разделение по промежуткам
Продолжительность промежутка : 42 мс. (1,00 видеокадр)
Время предзагрузки промежутка : 500 мс.
Заголовок : Russian (MVO HDrezka Studio)
ServiceKind/String : Complete Main
[Profile] [PM]
Display posts:    
Reply to topic

Current time is: 15-Nov 01:41

All times are UTC + 3



You cannot post new topics in this forum
You cannot reply to topics in this forum
You cannot edit your posts in this forum
You cannot delete your posts in this forum
You cannot vote in polls in this forum
You cannot attach files in this forum
You cannot download files in this forum