О любви (2017) [GER Transfer] BDRip 720p | Лицензия

Ответить на тему
 
Автор Сообщение

Monk ®

Пол: Мужской

Стаж: 3 месяца 2 дня

Сообщений: 3233

Откуда: Казань

Создавать темы 19-Ноя-2018 09:54

[Цитировать]

О любви Год выпуска: 2017
Жанр: Мелодрама
Выпущено: Россия, Studio 2-B-2 entertainment
Режиссер: Владимир Бортко
В ролях: Анна Чиповская, Алексей Чадов, Мария Миронова мл., Александр Лыков, Дмитрий Певцов, Светлана Хомич, Ольга Павлюкова, Клавдия Белова
О фильме: Может ли влюбленная женщина сделать правильный выбор между чувством к мужчине и долгом перед своей семьей? Этот вопрос задавался еще великим чтецом человеческих душ Львом Толстым в романе «Анна Каренина» и ответ на него в финале был неоднозначным. Российский режиссер Владимир Бортко также поднимает эту дилемму в своей картине «О любви» с позиции взглядов современной эпохи. Красавица Нина вполне довольна своим браком с интеллигентным профессором – китаистом, ее жизнь спокойна и размеренна. Однако случайное знакомство с Сергеем, человеком многогранных интересов, разожгло пламя страсти в ее инертной до того момента душе. Так, девушка впервые осознает, что такое любовь… Как разрешится подобный любовный треугольник сегодня и должна ли быть наказана современная Анна Каренина? Найдите ответ в этом фильме…

Качество: BDRip 720p
Видео: MPEG-4 AVC, 6524 Кбит/с, 1280x694, 23.976 Кадр/с
Аудио: Русский, немецкий (AC3, 6 ch, 448 Кбит/с)
Продолжительность: 01:34:54
Перевод: Не требуется [Лицензия]

Скриншоты


MediaInfo

Общее
Уникальный идентификатор : 195630422837003734665485629544130875134 (0x932D0C872AE090388708355E62DF0EFE)
Полное имя : D:\Video\О любви.2017.Ger Transfer.BDRip 720p by msltel.mkv
Формат : Matroska
Версия формата : Version 4
Размер файла : 4,92 Гбайт
Продолжительность : 1 ч. 34 м.
Общий поток : 7422 Кбит/сек
Название фильма : Rip by msltel
Дата кодирования : UTC 2018-11-17 18:12:20
Программа кодирования : mkvmerge v8.2.0 ('World of Adventure') 64bit
Библиотека кодирования : libebml v1.3.1 + libmatroska v1.4.2
Видео
Идентификатор : 1
Формат : AVC
Формат/Информация : Advanced Video Codec
Профиль формата : High@L4.1
Настройки формата : CABAC / 9 Ref Frames
Параметр CABAC формата : Да
Параметр RefFrames формата : 9 кадров
Идентификатор кодека : V_MPEG4/ISO/AVC
Продолжительность : 1 ч. 34 м.
Битрейт : 6524 Кбит/сек
Ширина : 1280 пикселей
Высота : 694 пикселя
Соотношение сторон : 1,85:1
Режим частоты кадров : Постоянный
Частота кадров : 24,000 кадра/сек
Цветовое пространство : YUV
Субдискретизация насыщенности : 4:2:0
Битовая глубина : 8 бит
Тип развёртки : Прогрессивная
Бит/(Пиксели*Кадры) : 0.306
Размер потока : 4,32 Гбайт (88%)
Библиотека кодирования : x264 core 155 r2901 7d0ff22
Настройки программы : cabac=1 / ref=9 / deblock=1:-3:-2 / analyse=0x3:0x113 / me=umh / subme=11 / psy=1 / psy_rd=1.00:0.15 / mixed_ref=1 / me_range=32 / chroma_me=1 / trellis=2 / 8x8dct=1 / cqm=0 / deadzone=21,11 / fast_pskip=0 / chroma_qp_offset=-3 / threads=6 / lookahead_threads=1 / sliced_threads=0 / nr=0 / decimate=1 / interlaced=0 / bluray_compat=0 / constrained_intra=0 / bframes=16 / b_pyramid=2 / b_adapt=2 / b_bias=0 / direct=1 / weightb=1 / open_gop=0 / weightp=2 / keyint=230 / keyint_min=23 / scenecut=40 / intra_refresh=0 / rc_lookahead=40 / rc=crf / mbtree=1 / crf=16.0 / qcomp=0.60 / qpmin=0 / qpmax=69 / qpstep=4 / vbv_maxrate=62500 / vbv_bufsize=78125 / crf_max=0.0 / nal_hrd=none / filler=0 / ip_ratio=1.40 / aq=1:1.00
Язык : Russian
Default : Да
Forced : Нет
Аудио #1
Идентификатор : 2
Формат : AC-3
Формат/Информация : Audio Coding 3
Коммерческое название : Dolby Digital
Идентификатор кодека : A_AC3
Продолжительность : 1 ч. 34 м.
Вид битрейта : Постоянный
Битрейт : 448 Кбит/сек
Каналы : 6 каналов
Channel layout : L R C LFE Ls Rs
Частота : 48,0 КГц
Частота кадров : 31,250 кадров/сек (1536 SPF)
Битовая глубина : 16 бит
Метод сжатия : С потерями
Размер потока : 304 Мбайт (6%)
Заголовок : оригинал
Язык : Russian
ServiceKind/String : Complete Main
Default : Да
Forced : Нет
Аудио #2
Идентификатор : 3
Формат : AC-3
Формат/Информация : Audio Coding 3
Коммерческое название : Dolby Digital
Идентификатор кодека : A_AC3
Продолжительность : 1 ч. 34 м.
Вид битрейта : Постоянный
Битрейт : 448 Кбит/сек
Каналы : 6 каналов
Channel layout : L R C LFE Ls Rs
Частота : 48,0 КГц
Частота кадров : 31,250 кадров/сек (1536 SPF)
Битовая глубина : 16 бит
Метод сжатия : С потерями
Размер потока : 304 Мбайт (6%)
Заголовок : DUB
Язык : German
ServiceKind/String : Complete Main
Default : Нет
Forced : Нет
Меню
00:00:00.000 : :Chapter 1
00:00:06.965 : :Chapter 2
00:00:13.930 : :Chapter 3
00:00:20.895 : :Chapter 4
00:00:27.861 : :Chapter 5
00:00:34.826 : :Chapter 6
00:00:41.791 : :Chapter 7
00:00:48.757 : :Chapter 8
00:00:55.722 : :Chapter 9
00:01:02.687 : :Chapter 10
00:01:09.652 : :Chapter 11
00:01:16.618 : :Chapter 12
00:01:23.583 : :Chapter 13
00:01:30.548 : :Chapter 14
00:01:37.514 : :Chapter 15
00:01:44.479 : :Chapter 16
00:01:51.444 : :Chapter 17
00:01:58.409 : :Chapter 18
00:02:05.375 : :Chapter 19
00:02:12.340 : :Chapter 20
00:02:19.305 : :Chapter 21
[Профиль] [ЛС]
Показать сообщения:    
Ответить на тему

Текущее время: 16-Фев 21:32

Часовой пояс: UTC + 3



Вы не можете начинать темы
Вы не можете отвечать на сообщения
Вы не можете редактировать свои сообщения
Вы не можете удалять свои сообщения
Вы не можете голосовать в опросах
Вы не можете прикреплять файлы к сообщениям
Вы не можете скачивать файлы