О любви (2017) [GER Transfer] BDRip 1080p | Лицензия

Reply to topic
 
Author Message

Monk ®

Gender: Male

Longevity: 9 months 11 days

Posts: 7980

Location: Казань

Post 19-Nov-2018 09:56

[Quote]

О любви Год выпуска: 2017
Жанр: Мелодрама
Выпущено: Россия, Studio 2-B-2 entertainment
Режиссер: Владимир Бортко
В ролях: Анна Чиповская, Алексей Чадов, Мария Миронова мл., Александр Лыков, Дмитрий Певцов, Светлана Хомич, Ольга Павлюкова, Клавдия Белова
О фильме: Может ли влюбленная женщина сделать правильный выбор между чувством к мужчине и долгом перед своей семьей? Этот вопрос задавался еще великим чтецом человеческих душ Львом Толстым в романе «Анна Каренина» и ответ на него в финале был неоднозначным. Российский режиссер Владимир Бортко также поднимает эту дилемму в своей картине «О любви» с позиции взглядов современной эпохи. Красавица Нина вполне довольна своим браком с интеллигентным профессором – китаистом, ее жизнь спокойна и размеренна. Однако случайное знакомство с Сергеем, человеком многогранных интересов, разожгло пламя страсти в ее инертной до того момента душе. Так, девушка впервые осознает, что такое любовь… Как разрешится подобный любовный треугольник сегодня и должна ли быть наказана современная Анна Каренина? Найдите ответ в этом фильме…

Качество: BDRip 1080p
Видео: MPEG-4 AVC, 10 Mбит/с, 1920x1040
Аудио: Русский (DTS, 6 ch, 768 Кбит/с), (AC3, 6 ch, 448 Кбит/c)
Продолжительность: 01:34:55
Перевод: Не требуется [Лицензия]

Скриншоты



MediaInfo

General
Unique ID : 151777757412052848751762447471897742525 (0x722F5531ABFAB63E22A8062C76B80CBD)
Complete name : D:\Video111\O.Lubvi.BDRip.1080.selezen.mkv
Format : Matroska
Format version : Version 4
File size : 7.43 GiB
Duration : 1 h 34 min
Overall bit rate : 11.2 Mb/s
Movie name : О любви 2018 from селезень
Encoded date : UTC 2018-11-16 09:40:59
Writing application : mkvmerge v28.2.0 ('The Awakening') 64-bit
Writing library : libebml v1.3.6 + libmatroska v1.4.9
Video
ID : 1
Format : AVC
Format/Info : Advanced Video Codec
Format profile : High@L4.1
Format settings : CABAC / 4 Ref Frames
Format settings, CABAC : Yes
Format settings, ReFrames : 4 frames
Codec ID : V_MPEG4/ISO/AVC
Duration : 1 h 34 min
Bit rate : 10 000 kb/s
Width : 1 920 pixels
Height : 1 040 pixels
Display aspect ratio : 1.85:1
Frame rate mode : Constant
Frame rate : 24.000 FPS
Color space : YUV
Chroma subsampling : 4:2:0
Bit depth : 8 bits
Scan type : Progressive
Bits/(Pixel*Frame) : 0.209
Stream size : 6.63 GiB (89%)
Title : selezen
Writing library : x264 core 148 r2705kMod 3f5ed56
Encoding settings : cabac=1 / ref=4 / deblock=1:-3:-3 / analyse=0x3:0x133 / me=umh / subme=11 / psy=1 / fade_compensate=0.00 / psy_rd=1.05:0.06 / mixed_ref=1 / me_range=48 / chroma_me=1 / trellis=2 / 8x8dct=1 / cqm=0 / deadzone=21,11 / fast_pskip=0 / chroma_qp_offset=-3 / threads=12 / lookahead_threads=2 / sliced_threads=0 / nr=0 / decimate=0 / interlaced=0 / bluray_compat=0 / constrained_intra=0 / fgo=0 / bframes=8 / b_pyramid=2 / b_adapt=2 / b_bias=0 / direct=3 / weightb=1 / open_gop=0 / weightp=2 / keyint=240 / keyint_min=24 / scenecut=40 / intra_refresh=0 / rc_lookahead=50 / rc=2pass / mbtree=0 / bitrate=10000 / ratetol=1.0 / qcomp=0.60 / qpmin=0 / qpmax=51 / qpstep=4 / cplxblur=20.0 / qblur=0.5 / vbv_maxrate=50000 / vbv_bufsize=62500 / nal_hrd=none / filler=0 / ip_ratio=1.40 / pb_ratio=1.30 / aq=3:0.80
Language : English
Default : Yes
Forced : No
Audio #1
ID : 2
Format : DTS
Format/Info : Digital Theater Systems
Codec ID : A_DTS
Duration : 1 h 34 min
Bit rate mode : Constant
Bit rate : 768 kb/s
Channel(s) : 6 channels
Channel layout : C L R Ls Rs LFE
Sampling rate : 48.0 kHz
Frame rate : 93.750 FPS (512 SPF)
Bit depth : 16 bits
Compression mode : Lossy
Stream size : 521 MiB (7%)
Language : Russian
Default : Yes
Forced : Yes
Audio #2
ID : 3
Format : AC-3
Format/Info : Audio Coding 3
Commercial name : Dolby Digital
Codec ID : A_AC3
Duration : 1 h 34 min
Bit rate mode : Constant
Bit rate : 448 kb/s
Channel(s) : 6 channels
Channel layout : L R C LFE Ls Rs
Sampling rate : 48.0 kHz
Frame rate : 31.250 FPS (1536 SPF)
Bit depth : 16 bits
Compression mode : Lossy
Stream size : 304 MiB (4%)
Language : Russian
Service kind : Complete Main
Default : No
Forced : No
Menu
00:00:00.000 : :00:00:00.000
00:02:12.125 : :00:02:12.125
00:10:15.917 : :00:10:15.917
00:19:23.667 : :00:19:23.667
00:29:37.708 : :00:29:37.708
00:40:01.208 : :00:40:01.208
00:49:51.500 : :00:49:51.500
00:57:34.042 : :00:57:34.042
01:06:32.250 : :01:06:32.250
01:13:10.125 : :01:13:10.125
01:21:19.208 : :01:21:19.208
01:31:52.458 : :01:31:52.458
[Profile] [PM]
Display posts:    
Reply to topic

Current time is: 25-Aug 15:22

All times are UTC + 3



You cannot post new topics in this forum
You cannot reply to topics in this forum
You cannot edit your posts in this forum
You cannot delete your posts in this forum
You cannot vote in polls in this forum
You cannot attach files in this forum
You cannot download files in this forum