Тайны госпожи Кирсановой [1-50 серии из 50] (2018) WEBRip от Files-x

Reply to topic
 
Author Message

bond74 ®

Gender: Male

Longevity: 2 years 11 months

Posts: 1288

Post 03-Dec-2018 17:54

[Quote]

Тайны госпожи Кирсановой Год выхода: 2018
Жанр: Детектив
Выпущено: Россия, Boomerang Film Company
Режиссер: Сергей Мезенцев, Виталий Бордачев
В ролях: Ольга Лерман, Антон Батырев, Евгений Шириков, Ольга Плешкова, Евгения Симонова, Иван Шабалтас, Николай Денисов, Максим Битюков, Юрий Шлыков, Сергей Савлук, Елена Радевич, Александра Никифорова
О фильме: 1878 год. В небольшой уездный город Богородск приезжает молодая учительница математики Лариса Дмитриевна Кирсанова. Госпожу Кирсанову привело сюда желание разыскать своего жениха – молодого дворянина Павла Бестужева, который таинственно исчез за день до венчания, не попрощавшись и не оставив даже письма. Павел родом из Богородска, в котором из родных осталась только старушка мать. Здесь же проживает и любимая тетка Ларисы – Лизавета Прокофьевна. Тем временем, после окончания русско-турецкой войны с Балкан возвращаются участники боевых сражений. Город ликует, встречая героев! Приехав в провинцию, Лариса Дмитриевна даже не догадывается о том, что её ожидает совсем другая жизнь, в которой в полной мере раскроются ее удивительные способности, ум и характер. Отныне ее жизнь наполнена загадками, риском и раскрытием громких преступлений!..

Качество: WEBRip
Видео: XviD, 1600 Кбит/с, 720x400, 25 кадр/с
Аудио: AC3, 2 ch, 192 Кбит/с
Продолжительность: 50 x ~ 00:45:00
Перевод: Не требуется
Субтитры: нет

Скриншоты


MediaInfo

General
Complete name : C:\Users\user\Downloads\Video\01.Тайны госпожи Кирсановой. Штабс-капитан.(2018).WEBRip.by.Серый1779.Files-x.avi
Format : AVI
Format/Info : Audio Video Interleave
File size : 642 MiB
Duration : 49mn 46s
Overall bit rate : 1 802 Kbps
Writing application : VirtualDubMod 1.5.10.3 | www.virtualdub-fr.org || (build 2550/release)
Writing library : VirtualDubMod build 2550/release
Video
ID : 0
Format : MPEG-4 Visual
Format profile : Advanced Simple@L5
Format settings, BVOP : 1
Format settings, QPel : No
Format settings, GMC : No warppoints
Format settings, Matrix : Custom
Codec ID : XVID
Codec ID/Hint : XviD
Duration : 49mn 46s
Bit rate : 1 601 Kbps
Width : 720 pixels
Height : 400 pixels
Display aspect ratio : 16:9
Frame rate : 25.000 fps
Color space : YUV
Chroma subsampling : 4:2:0
Bit depth : 8 bits
Scan type : Progressive
Compression mode : Lossy
Bits/(Pixel*Frame) : 0.222
Stream size : 570 MiB (89%)
Writing library : XviD 73
Audio
ID : 1
Format : AC-3
Format/Info : Audio Coding 3
Mode extension : CM (complete main)
Codec ID : 2000
Duration : 49mn 46s
Bit rate mode : Constant
Bit rate : 192 Kbps
Channel(s) : 2 channels
Channel positions : Front: L R
Sampling rate : 48.0 KHz
Bit depth : 16 bits
Compression mode : Lossy
Stream size : 68.4 MiB (11%)
Alignment : Split accross interleaves
Interleave, duration : 40 ms (1.00 video frame)
Interleave, preload duration : 500 ms
Релиз от:

Release was prepared by RG Files-x



Last edited by bond74 on 2019-01-18 18:20; edited 22 times in total
[Profile] [PM]

White Smoke

Gender: Male

Longevity: 2 years 11 months

Posts: 195

Post 03-Dec-2018 22:25 (after 4 hours)

[Quote]

bond74,
Заменил вам рейтинг, ссылка бросала на другой сериал, на этот сериал на кп нет рейтинга
[Profile] [PM]

veteran-59

Gender: Male

Longevity: 2 years 9 months

Posts: 2

Post 12-Jan-2019 09:26 (after 1 month 8 days)

[Quote]

Где продолжение?
[Profile] [PM]
Display posts:    
Reply to topic

Current time is: 22-Oct 10:25

All times are UTC + 3



You cannot post new topics in this forum
You cannot reply to topics in this forum
You cannot edit your posts in this forum
You cannot delete your posts in this forum
You cannot vote in polls in this forum
You cannot attach files in this forum
You cannot download files in this forum