Тайны госпожи Кирсановой [1-50 серии из 50] (2018) HDTVRip от Generalfilm

Reply to topic
 
Author Message

papa1951deda ®

Gender: Male

Longevity: 2 years 11 months

Posts: 1107

Location: Казахстан

Post 03-Dec-2018 18:05

[Quote]

Тайны госпожи Кирсановой
Год выпуска: 2018
Жанр: Детектив
Выпущено: Boomerang Film Company
Режиссёр: Сергей Мезенцев, Виталий Бордачев
В ролях: Ольга Лерман, Антон Батырев, Евгений Шириков, Ольга Плешкова, Евгения Симонова, Иван Шабалтас, Николай Денисов, Максим Битюков, Юрий Шлыков, Сергей Савлук, Елена Радевич, Александра Никифорова
О фильме: 1878 год. В небольшой уездный город Богородск приезжает молодая учительница математики Лариса Дмитриевна Кирсанова. Госпожу Кирсанову привело сюда желание разыскать своего жениха – молодого дворянина Павла Бестужева, который таинственно исчез за день до венчания, не попрощавшись и не оставив даже письма. Павел родом из Богородска, в котором из родных осталась только старушка мать. Здесь же проживает и любимая тетка Ларисы – Лизавета Прокофьевна. Тем временем, после окончания русско-турецкой войны с Балкан возвращаются участники боевых сражений. Город ликует, встречая героев! Приехав в провинцию, Лариса Дмитриевна даже не догадывается о том, что её ожидает совсем другая жизнь, в которой в полной мере раскроются ее удивительные способности, ум и характер. Отныне ее жизнь наполнена загадками, риском и раскрытием громких преступлений!..
Качество: HDTVRip
Видео: XviD, 1400 Кбит/с, 720x400
Аудио: AC3, 2 ch, 192 Кбит/с
Продолжительность: 50 x ~ 00:45:00
Перевод: Не требуется
Субтитры: Нет

Скриншоты



MediaInfo

General
Complete name : D:\Tajny.gospozhi.Kirsanovoj.XviD.2018.HDTVRip.Generalfilm\001.Штабс-капитан 1-я серия.avi
Format : AVI
Format/Info : Audio Video Interleave
File size : 550 MiB
Duration : 49mn 14s
Overall bit rate : 1 563 Kbps
Movie name : 001.Штабс-капитан 1-я серия
Director : Brux
Writing application : VirtualDubMod 1.5.10.3 | www.virtualdub-fr.org || (build 2550/release)
Video
ID : 0
Format : MPEG-4 Visual
Format profile : Advanced Simple@L5
Format settings, BVOP : 2
Format settings, QPel : No
Format settings, GMC : No warppoints
Format settings, Matrix : Custom
Codec ID : XVID
Codec ID/Hint : XviD
Duration : 49mn 14s
Bit rate : 1 361 Kbps
Width : 720 pixels
Height : 400 pixels
Display aspect ratio : 16:9
Frame rate : 25.000 fps
Color space : YUV
Chroma subsampling : 4:2:0
Bit depth : 8 bits
Scan type : Progressive
Compression mode : Lossy
Bits/(Pixel*Frame) : 0.189
Stream size : 479 MiB (87%)
Writing library : XviD 65
Audio
ID : 1
Format : AC-3
Format/Info : Audio Coding 3
Mode extension : CM (complete main)
Format settings, Endianness : Big
Codec ID : 2000
Duration : 49mn 14s
Bit rate mode : Constant
Bit rate : 192 Kbps
Channel(s) : 2 channels
Channel positions : Front: L R
Sampling rate : 48.0 KHz
Bit depth : 16 bits
Compression mode : Lossy
Stream size : 67.6 MiB (12%)
Alignment : Split accross interleaves
Interleave, duration : 40 ms (1.00 video frame)
Interleave, preload duration : 500 ms

Внимание! Раздача ведётся путём добавления новых серий

Раздача ведётся путём добавления новых серий, при каждом добавлении создаётся новый торрент. Чтобы начать докачку новой серии, пользователям необходимо сделать следующее:
- Остановить скачивание.
- Удалить старый торрент у себя из клиента (старые серии удалять не надо).
- Скачать новый торрент и запустить его у себя в клиенте вместо старого, при этом указать клиенту путь в старую папку куда и должно происходить скачивание новых серий.
Ваш клиент при этом должен произвести хеширование (проверку) старой папки (если не производит сам - помогите ему сделать это), и будет докачивать только те серии которых у вас ещё нет. Старые серии при этом не удаляются, а продолжают раздаваться!
[Profile] [PM]

carapuzzz

Gender: Male

Longevity: 2 years 10 months

Posts: 1

Post 10-Dec-2018 21:15 (after 7 days)

[Quote]

Спасибо. Не нашел кнопку "Спасибо".
[Profile] [PM]

Brux

Longevity: 2 years 10 months

Posts: 15

Post 10-Dec-2018 21:19 (after 3 minutes)

[Quote]

2437Спасибо. Не нашел кнопку "Спасибо".
Пожалуйста. На данный момент кнопки сейчас нету. Ну она в разработке что бы её добавить...
[Profile] [PM]

nuz2016

Gender: Male

Longevity: 2 years 10 months

Posts: 12

Post 13-Dec-2018 16:21 (after 2 days 19 hours)

[Quote]

А где 15 и 16 серии за вчера?
[Profile] [PM]

Brux

Longevity: 2 years 10 months

Posts: 15

Post 13-Dec-2018 16:31 (after 10 minutes)

[Quote]

2720А где 15 и 16 серии за вчера?
Сегодня будут сразу 4 серии
[Profile] [PM]

nuz2016

Gender: Male

Longevity: 2 years 10 months

Posts: 12

Post 13-Dec-2018 17:40 (after 1 hour 9 minutes)

[Quote]

Сегодня будут сразу 4 серии
Ясно. Спасибо.
[Profile] [PM]
Display posts:    
Reply to topic

Current time is: 22-Oct 09:05

All times are UTC + 3



You cannot post new topics in this forum
You cannot reply to topics in this forum
You cannot edit your posts in this forum
You cannot delete your posts in this forum
You cannot vote in polls in this forum
You cannot attach files in this forum
You cannot download files in this forum